Доктор Стрэндж

Лицензия

Добыча

MVO

Дом дракона

1 сезон

Тор

Лицензия

Мэверик

Лицензия

Там, где раки поют

MVO

Властелин колец

1 сезон

Ultimate

pack

Рекомендуем

30

Repack

ВАЖНО

ВАЖНО

Ghostwire

RePack

jed

RePack

nioh2

RePack

RDR2

RePack

NEED FOR SPEED™ PAYBACK

RePack

скачать торрент

Кинопоиск HD

Острые козырьки 6 сезон

6 сезон

FAR CRY 6

RePack

скачать торрент

Лицензия

скачать торрент

MVO

1

1 сезон

скачать торрент

1 сезон

скачать торрент

Лицензия

  

Внимание! В городе волшебник! (Владимир Бычков) [1963, СССР, детский, SATRip от AVP Studio]

Внимание! В городе волшебник! через торрент piratbit.org

Размер: 745 MB | Добавлен: 3 года 6 мес. назад | Торрент скачан:2 раза
Смотреть онлайн Внимание! В городе волшебник! | Скачать   

19-03-2019 08:00 Внимание! В городе волшебник! Скачать торрент  

Внимание! В городе волшебник!
Страна: СССР
Производство: Союзмультфильм, Беларусьфильм

Жанр: детский
Год выпуска: 1962
Продолжительность: 00:52:42

Перевод: Не требуется
Cубтитры: нет
Оригинальная аудиодорожка: русский

Режиссер: Владимир Бычков

В ролях:
Михаил Яншин, Михаил Жаров, Ольга Порудолинская, Дмитрий Орлов, Эмилия Трейвас, Александр Орлов (II), Владимир Поночевный, Тамара Малкова, Саша Веденеев...
Об актёрах подробней

Описание:
Анимационно-игровой фильм, эксцентрическая сказка.
Мальчик читает книжку о сказочном городе, а когда его глаза устают, он отдыхает и размышляет о том, что произойдет, если все люди будут думать только о себе. Ему представляется, что в удивительном городе живет молодой волшебник: хорошим людям он помогает, а плохих - превращает куклы.

Исходник: DVB
Качество видео: SATRip
Формат видео: AVI

Видео: 704x528 (4:3), 25,000 кадров/сек, XviD ~ 1776 kbps avg, 0.191 bit/pixel
Аудио: 48 kHz, Dolby Digital AC3 2.0, 192 kbps

Раздача от:
Общее
Полное имя : Vnimanie!V.gorode.volshebnik.1963.SATRip_[New-team]_by_AVP_Studio.avi
Формат : AVI
Формат/Информация : Audio Video Interleave
Размер файла : 745 Мбайт
Продолжительность : 52 м. 41 с.
Общий поток : 1978 Кбит/сек
Программа кодирования : VirtualDubMod 1.5.10.3 | www.virtualdub-fr.org || (build 2550/release)
Библиотека кодирования : VirtualDubMod build 2550/release

Видео
Идентификатор : 0
Формат : MPEG-4 Visual
Профиль формата : Advanced Simple@L5
Настройки формата : BVOP1 / Custom Matrix
Параметр BVOP формата : 1
Параметр QPel формата : Нет
Параметр GMC формата : Без точки перехода
Параметр матрицы формата : Выборочная
Идентификатор кодека : XVID
Идентификатор кодека/Подсказка : XviD
Продолжительность : 52 м. 41 с.
Битрейт : 1776 Кбит/сек
Ширина : 704 пикселя
Высота : 528 пикселей
Соотношение сторон : 4:3
Частота кадров : 25,000 кадров/сек
Цветовое пространство : YUV
Субдискретизация насыщенности : 4:2:0
Битовая глубина : 8 бит
Тип развёртки : Прогрессивная
Метод сжатия : С потерями
Бит/(Пиксели*Кадры) : 0.191
Размер потока : 669 Мбайт (90%)
Библиотека кодирования : XviD 73

Аудио
Идентификатор : 1
Формат : AC-3
Формат/Информация : Audio Coding 3
Коммерческое название : Dolby Digital
Идентификатор кодека : 2000
Продолжительность : 52 м. 41 с.
Вид битрейта : Постоянный
Битрейт : 192 Кбит/сек
Каналы : 2 канала
Channel layout : L R
Частота : 48,0 КГц
Частота кадров : 31,250 кадров/сек (1536 SPF)
Битовая глубина : 16 бит
Метод сжатия : С потерями
Размер потока : 72,4 Мбайт (10%)
Выравнивание : Разделение по промежуткам
Продолжительность промежутка : 40 мс. (1,00 видеокадр)
Время предзагрузки промежутка : 500 мс



Скачать Внимание! В городе волшебник! через торрент http://picplus.ru/img/1903/19/e429545e.png Скачать, смотреть онлайн Внимание! В городе волшебник! бесплантно в хорошем качестве Описание:Анимационно-игровой фильм, эксцентрическая сказка.Мальчик читает книжку о сказочном городе, а когда его глаза устают, он отдыхает ... 5 10 1
Info! Золотая раздача, скачанное не засчитывается.
Торрент: Зарегистрирован [2019-03-19 08:00] · скачан: 2 раз
Статус: √ проверено
Размер: 745 MB
Как cкачать? Как скачать Внимание! В городе волшебник! через торрент | UTorrent

% Раздел Тема Автор DL S | L
Кино СССР [ 745 MB ] Внимание! В городе волшебник! | | SATRip-AVC от AVP Studio AVP Studio Скачать
1 | 0

28-11-2019 20:33  

Отключить вcю реклaмy на сайте

    Дорогой пользователь! Огромная просьба, поблагодарите релизера, оцените раздачу и оставьте свои комментарий, если Вы скачали Внимание! В городе волшебник! через торрент бесплатно!!
    Комментировать посты могут только пользователи прошедшие не сложную регистрацию
    Показать сообщения:    


    Внимание! В городе волшебник! через торрент
    Скачать бесплатно Внимание! В городе волшебник!
    Внимание! В городе волшебник! скачать торрент
    Внимание! В городе волшебник! смотреть онлайн
    Cкачать фильм Внимание! В городе волшебник! бесплатно
    Внимание! В городе волшебник! скачать торрент в хорошем качестве
    Внимание! В городе волшебник! смотреть онлайн бесплатно в хорошем качестве
    Вы не можете начинать темы
    Вы не можете отвечать на сообщения
    Вы не можете редактировать свои сообщения
    Вы не можете удалять свои сообщения
    Вы не можете голосовать в опросах
    Вы не можете прикреплять файлы к сообщениям
    Вы можете скачивать файлы