2 сезон

iTunes

WEBRip

1

2 сезон

iTunes

1 сезон

1 сезон

RePack

30

Новинка

ВАЖНО

ИГРА 18+

pack

RePack

MK11
pack

Легкие деньги

RePack

jed

RePack

fifa19

RePack

RDR2

RePack

NEED FOR SPEED™ PAYBACK

4 сезон

9 сезон

Бесстыжие 9 сезон

Все сериалы

все сериалы на PB.wtf

RePack

FAR CRY 5

Anonymous, доброй ночи, мы не успеваем собрать деньги на оплату серверов за февраль, помогите нам пожалуйста в это трудное время. В качестве благодарности мы отключим Вам всю рекламу на сайте (укажите свой ник в строку Ваше имя)!

×
  
Magnet ссылка

Круты 1918 / Крути 1918 (Алексей Шапарев) [2019, боевик, история, военный, WEBRip 1080p] [Ukr] piratbit.org

Круты 1918 через торрент piratbit.org

Размер: 1.73 GB | Добавлен: 1 год 11 мес. назад | Торрент скачан:158 раз
Скачать  

19-03-2019 19:31 Круты 1918 Скачать торрент  

Круты 1918 / Крути 1918
Год выпуска: 2019
Страна: Украина
Жанр: боевик, история, военный
Продолжительность: 01:50:00
Перевод: Оригинал [украинский]
Субтитры: Украинские (вшитые / форсированные на русскую речь)

Режиссер: Алексей Шапарев

В ролях: Александр Пискунов, Алексей Тритенко, Роман Ясиновский, Богдан Юсипчук, Дмитрий Ступка, Наталия Васько, Остап Ступка, Юрий Коваленко, Александр Олексенко

Описание: Зима 1918 года. Два брата Андрей и Алексей Савицких влюбляются в прекрасную Софию. Большевики подходят к Киеву, город наполнен «красными» агентами. Правительство УНР бросает на борьбу с врагом все боеспособные части армии, включая юнкерами и студентами. Четыре сотни юношей, среди которых Андрей и Алексей, становятся против четырёхтысячного хорошо вооруженного войска.

rating

Качество: WEBRip 1080p
Формат: MKV
Аудио: AC3
Видео: AVC, 1920x800 (2.40:1), 24.000 fps, 1 992 kb/s
Аудио: AC3, 48.0 kHz, 2 ch, 256 kb/s | UKR
General
Unique ID : 177709924099686958786311405129700642091 (0x85B1AFB978FB1D1BAF9B25F3FAD28D2B)
Complete name : Kruty.1918.(2019).WEBRip.1080p.Ukr.mkv
Format : Matroska
Format version : Version 4
File size : 1.73 GiB
Duration : 1 h 50 min
Overall bit rate : 2 249 kb/s
Encoded date : UTC 2019-03-18 17:08:42
Writing application : mkvmerge v8.3.0 ('Over the Horizon') 64bit
Writing library : libebml v1.3.1 + libmatroska v1.4.2

Video
ID : 1
Format : AVC
Format/Info : Advanced Video Codec
Format profile : Main@L4
Format settings : CABAC / 4 Ref Frames
Format settings, CABAC : Yes
Format settings, ReFrames : 4 frames
Format settings, GOP : M=4, N=24
Codec ID : V_MPEG4/ISO/AVC
Duration : 1 h 50 min
Bit rate : 1 992 kb/s
Width : 1 920 pixels
Height : 800 pixels
Display aspect ratio : 2.40:1
Frame rate mode : Constant
Frame rate : 24.000 FPS
Color space : YUV
Chroma subsampling : 4:2:0
Bit depth : 8 bits
Scan type : Progressive
Bits/(Pixel*Frame) : 0.054
Stream size : 1.53 GiB (89%)
Writing library : x264 core 142 r2389 956c8d8
Encoding settings : cabac=1 / ref=1 / deblock=1:0:0 / analyse=0x1:0x1 / me=dia / subme=1 / psy=1 / psy_rd=1.00:0.00 / mixed_ref=0 / me_range=16 / chroma_me=1 / trellis=0 / 8x8dct=0 / cqm=0 / deadzone=21,11 / fast_pskip=1 / chroma_qp_offset=0 / threads=12 / lookahead_threads=2 / sliced_threads=0 / nr=0 / decimate=1 / interlaced=0 / bluray_compat=0 / constrained_intra=0 / bframes=3 / b_pyramid=2 / b_adapt=1 / b_bias=0 / direct=1 / weightb=1 / open_gop=0 / weightp=1 / keyint=24 / keyint_min=2 / scenecut=40 / intra_refresh=0 / rc=crf / mbtree=0 / crf=27.0 / qcomp=0.60 / qpmin=0 / qpmax=69 / qpstep=4 / ip_ratio=1.40 / pb_ratio=1.30 / aq=1:1.00
Default : Yes
Forced : No

Audio
ID : 2
Format : AC-3
Format/Info : Audio Coding 3
Commercial name : Dolby Digital
Codec ID : A_AC3
Duration : 1 h 50 min
Bit rate mode : Constant
Bit rate : 256 kb/s
Channel(s) : 2 channels
Channel layout : L R
Sampling rate : 48.0 kHz
Frame rate : 31.250 FPS (1536 SPF)
Bit depth : 16 bits
Compression mode : Lossy
Stream size : 201 MiB (11%)
Service kind : Complete Main
Default : Yes
Forced : No
скриншот  скриншот  скриншот  
piratbit.org



Скачать Круты 1918 через торрент https://i2.imageban.ru/out/2019/03/18/178808275e88923f97d0dc19834bdd2e.jpg Скачать фильм Круты 1918 через торрент бесплантно в хорошем качестве Описание: Зима 1918 года. Два брата Андрей и Алексей Савицких влюбляются в прекрасную Софию. Большевики подходят к Киеву, город наполнен ... 7.3 10 13
Info! Золотая раздача, скачанное не засчитывается.
Торрент: Зарегистрирован [2019-03-19 19:31] · скачан: 158 раз
Статус: T временная
Размер: 1.73 GB
Как cкачать? Как скачать Круты 1918 через торрент | UTorrent

28-11-2019 20:33  

Отключить всю рекламу на сайте

20-03-2019 05:32 Круты 1918 Скачать торрент  

.......piratbit.org





Последний раз редактировалось: SASHA66 (2019-03-20 11:40), всего редактировалось 1 раз

20-03-2019 05:43 Круты 1918 Скачать торрент  

да уж.piratbit.org



21-03-2019 05:19 Круты 1918 Скачать торрент  

фильм суперpiratbit.org



21-03-2019 11:11 Круты 1918 Скачать торрент  

Интересные факты о фильме.
По иронии, первый съемочный день фильма, повествующего о борьбе Украины за независимость, прошел в резиденции беглого президента в Межигорье.
Основную часть съемок провели в Киевской крепости. Станцию «Круты» снимали в Черкасской области ,поскольку в селе Сингаивка — на самой станции сейчас находится мемориал. Местные жители также принимали участие в съемках — в массовых сценах. Сам бой снимали под Киевом — возле села Подгорцы.
В батальных сценах задействовали не профессиональных актеров, а 150 военнослужащих Президентской бригады Нацгвардии Украины.
В фильме снялись участники Революции достоинства и воины АТО. В отдельных сценах играли любители исторических реконструкций. Им отвели роли юнкеров, офицеров и казаков.
На съемках боя стреляли холостыми патронами. Их потратили около 2000. Интересно, что раритетное, но до сих пор отлично работающее оружие принадлежит сотнику 19-й сотни Самообороны Майдана, бойцу «Айдара» Владимиру Правосудову «Штурму».
В сцене, показывающей современную Украину и нынешнюю станцию «Круты», снимали детей, которые ни разу не играли в кино. Однако ребята-скауты из организации «Пласт», по мнению творческой группы фильма, делали все правильно и быстро, с ними легко работалось.
Бои с большевиками снимали при 20-градусном морозе, что помогло актерам, надевшим экипировку студентов-бойцов, почувствовать, в каких условиях жили и сражались молодые люди.
Авторами саундтреков стали итальянский композитор Марко Морини, а также певица Кристина Соловий и группа «Гайдамаки».
В начале киноленты на экранах появляется кондитер, прототипом которого стал Соломон Белинский, который одним из первых испек знаменитый «Киевский торт» и киевское сухое варенье (цукаты).
piratbit.org



    Дорогой пользователь! Огромная просьба, поблагодарите релизера, оцените раздачу и оставьте свои комментарий, если Вы скачали Круты 1918 через торрент бесплатно! Внесите свою лепту в развитие PiratBit!
    Комментировать посты могут только пользователи прошедшие не сложную регистрацию
    Показать сообщения:    

    Круты 1918 через торрент
    Скачать бесплатно Круты 1918
    Круты 1918 скачать торрент
    Круты 1918 смотреть онлайн
    Cкачать фильм Круты 1918 бесплатно
    Круты 1918 скачать торрент в хорошем качестве
    Круты 1918 смотреть онлайн бесплатно в хорошем качестве


    Вы не можете начинать темы
    Вы не можете отвечать на сообщения
    Вы не можете редактировать свои сообщения
    Вы не можете удалять свои сообщения
    Вы не можете голосовать в опросах
    Вы не можете прикреплять файлы к сообщениям
    Вы можете скачивать файлы