Достать ножи: Стеклянная луковица

MVO

Добыча

Дубляж

Уэнсдэй

1 сезон

Тор

Дубляж

13 клиническая

1 сезон

Жестокая ночь

MVO

Одни из нас

1 сезон

Deluxe

pack

Рекомендуем

30

Пиратка

ВАЖНО

ВАЖНО

Ghostwire

Пиратка

jed

RePack

nioh2

RePack

RDR2

RePack

NEED FOR SPEED™ PAYBACK

RePack

скачать торрент

Кинопоиск HD

Острые козырьки 6 сезон

6 сезон

FAR CRY 6

RePack

скачать торрент

Лицензия

скачать торрент

MVO

1

1 сезон

скачать торрент

1 сезон

скачать торрент

Лицензия

  

Оружейный барон / Бог войны / Lord of War (Эндрю Никкол) [2005, триллер, драма, криминал, UHD BDRemux 2160p] Дубляж + 2xDVO + AVO

Оружейный барон через торрент piratbit.org

Размер: 68.25 GB | Добавлен: 3 года 10 мес. назад | Торрент скачан:16 раз
Смотреть онлайн | Скачать | Поддержите нас   

20-03-2019 03:58 Оружейный барон Скачать торрент  

Оружейный барон / Lord of War«Первое правило торговца оружием – не будь подстрелен из своего же собственного товара»

Год выпуска: 2005
Страна: США, Германия, Франция
Жанр: триллер, драма, криминал
Продолжительность: 02:01:49
Перевод: Дублированный, профессиональный двухголосый, авторский
Субтитры: русские (Forced, Full), английские
Режиссер: Эндрю Никкол
В ролях:

Николас Кейдж (Yuri Orlov), Бриджет Мойнэхэн (Ava Fontaine), Джаред Лето (Vitaly Orlov), Итан Хоук (Jack Valentine), Иэн Холм (Simeon Weisz), Шаке Тухманян (Irina Orlov), Жан-Пьер Ншанян (Anatoly Orlov), Имонн Уолкер (Andre Baptiste Senior), Сэмми Ротиби (Andre Baptiste Junior), Евгений Лазарев (General Dmitri), Джаред Бурк (Ukrainian Mobster), Эрик Уйс (Ukrainian Mobster)
Описание:
Родители Юрия и Виталия Орловых покинули Украину и обосновались в Америке: у них маленький ресторанчик на Брайтон-Бич. Дети же не стремятся идти по родительским стопам. Юрий начинает торговать оружием и с помощью брата быстро завоевывает свое место под солнцем. Но чем выше он поднимается, тем ближе к нему подбирается агент Интерпола.
Рейтинг:

MPAA: R - Лицам до 17 лет обязательно присутствие взрослого
Качество: UHD BDRemux 2160p
Формат: MKV
Видео: HEVC HDR, 71300 Кбит/с, 3840x2160, 23.976 кадр/с
Аудио №1: русский / AC3, 6 ch, 448 Кбит/с - дубляж
Аудио №2: русский / AC3, 6 ch, 448 Кбит/с - двухголосый [Tycoon Studio]
Аудио №3: русский / AC3, 6 ch, 448 Кбит/с - авторский [Королёв]
Аудио №4: русский / DTS-HD MA, 6 ch, 2197 Кбит/с - двухголосый [Гланц и Королёва]
Аудио №5: английский / TrueHD, 8 ch, 4750 Кбит/с - оригинал
Аудио №6: английский / AC3, 6 ch, 640 Кбит/с - оригинал
Навигация по главам: есть

General
Unique ID : 46193903301496403801759257997515526449 (0x22C09F45FC5B1F6C73C4E472F08D9131)
Complete name : F:\Lord.of.War.2005.hdr.bdremuX.216Op.werecut.PROD.mkv
Format : Matroska
Format version : Version 4
File size : 68.3 GiB
Duration : 2 h 1 min
Overall bit rate mode : Variable
Overall bit rate : 80.2 Mb/s
Movie name : Lord of War (2005) OT werecut PROD.
Encoded date : UTC 2019-03-20 02:55:59
Writing application : mkvmerge v28.0.0 ('Voice In My Head') 64-bit
Writing library : libebml v1.3.6 + libmatroska v1.4.9

Video
ID : 1
Format : HEVC
Format/Info : High Efficiency Video Coding
Commercial name : HDR10
Format profile : Main 10@L5.1@High
Codec ID : V_MPEGH/ISO/HEVC
Duration : 2 h 1 min
Bit rate : 71.3 Mb/s
Width : 3 840 pixels
Height : 2 160 pixels
Display aspect ratio : 16:9
Frame rate mode : Constant
Frame rate : 23.976 (24000/1001) FPS
Color space : YUV
Chroma subsampling : 4:2:0 (Type 2)
Bit depth : 10 bits
Bits/(Pixel*Frame) : 0.358
Stream size : 60.6 GiB (89%)
Language : English
Default : Yes
Forced : No
Color range : Limited
Color primaries : BT.2020
Transfer characteristics : PQ
Matrix coefficients : BT.2020 non-constant
Mastering display color pri : Display P3
Mastering display luminance : min: 0.0001 cd/m2, max: 1000 cd/m2
Maximum Content Light Level : 1000 cd/m2
Maximum Frame-Average Light : 972 cd/m2

Audio #1
ID : 2
Format : AC-3
Format/Info : Audio Coding 3
Commercial name : Dolby Digital
Codec ID : A_AC3
Duration : 2 h 1 min
Bit rate mode : Constant
Bit rate : 448 kb/s
Channel(s) : 6 channels
Channel layout : L R C LFE Ls Rs
Sampling rate : 48.0 kHz
Frame rate : 31.250 FPS (1536 SPF)
Bit depth : 16 bits
Compression mode : Lossy
Stream size : 390 MiB (1%)
Title : Dubbing
Language : Russian
Service kind : Complete Main
Default : Yes
Forced : No

Audio #2
ID : 3
Format : AC-3
Format/Info : Audio Coding 3
Commercial name : Dolby Digital
Codec ID : A_AC3
Duration : 2 h 1 min
Bit rate mode : Constant
Bit rate : 448 kb/s
Channel(s) : 6 channels
Channel layout : L R C LFE Ls Rs
Sampling rate : 48.0 kHz
Frame rate : 31.250 FPS (1536 SPF)
Bit depth : 16 bits
Compression mode : Lossy
Stream size : 390 MiB (1%)
Title : профессиональный (двухголосый закадровый, Tycoon)
Language : Russian
Service kind : Complete Main
Default : No
Forced : No

Audio #3
ID : 4
Format : AC-3
Format/Info : Audio Coding 3
Commercial name : Dolby Digital
Codec ID : A_AC3
Duration : 2 h 1 min
Bit rate mode : Constant
Bit rate : 448 kb/s
Channel(s) : 6 channels
Channel layout : L R C LFE Ls Rs
Sampling rate : 48.0 kHz
Frame rate : 31.250 FPS (1536 SPF)
Bit depth : 16 bits
Compression mode : Lossy
Stream size : 390 MiB (1%)
Title : авторский (одноголосый закадровый, Королёв)
Language : Russian
Service kind : Complete Main
Default : No
Forced : No

Audio #4
ID : 5
Format : DTS XLL
Format/Info : Digital Theater Systems
Commercial name : DTS-HD Master Audio
Codec ID : A_DTS
Duration : 2 h 1 min
Bit rate mode : Variable
Bit rate : 2 197 kb/s
Channel(s) : 6 channels
Channel layout : C L R Ls Rs LFE
Sampling rate : 48.0 kHz
Frame rate : 93.750 FPS (512 SPF)
Bit depth : 16 bits
Compression mode : Lossless
Stream size : 1.87 GiB (3%)
Title : профессиональный (двухголосый закадровый, Гланц и Королёва)
Language : Russian
Default : No
Forced : No

Audio #5
ID : 6
Format : MLP FBA 16-ch
Format/Info : Meridian Lossless Packing FBA with 16-channel presentation
Commercial name : Dolby TrueHD with Dolby Atmos
Codec ID : A_TRUEHD
Duration : 2 h 1 min
Bit rate mode : Variable
Bit rate : 4 750 kb/s
Maximum bit rate : 8 028 kb/s
Channel(s) : 8 channels
Channel layout : L R C LFE Ls Rs Lb Rb
Sampling rate : 48.0 kHz
Frame rate : 1 200.000 FPS (40 SPF)
Compression mode : Lossless
Stream size : 4.04 GiB (6%)
Language : English
Default : No
Forced : No
Number of dynamic objects : 15
Bed channel count : 1 channel
Bed channel configuration : LFE

Audio #6
ID : 7
Format : AC-3
Format/Info : Audio Coding 3
Commercial name : Dolby Digital
Codec ID : A_AC3
Duration : 2 h 1 min
Bit rate mode : Constant
Bit rate : 640 kb/s
Channel(s) : 6 channels
Channel layout : L R C LFE Ls Rs
Sampling rate : 48.0 kHz
Frame rate : 31.250 FPS (1536 SPF)
Bit depth : 16 bits
Compression mode : Lossy
Stream size : 557 MiB (1%)
Language : English
Service kind : Complete Main
Default : No
Forced : No

Text #1
ID : 8
Format : UTF-8
Codec ID : S_TEXT/UTF8
Codec ID/Info : UTF-8 Plain Text
Duration : 1 h 50 min
Bit rate : 1 b/s
Count of elements : 21
Stream size : 1.33 KiB (0%)
Title : Forced
Language : Russian
Default : Yes
Forced : No

Text #2
ID : 9
Format : UTF-8
Codec ID : S_TEXT/UTF8
Codec ID/Info : UTF-8 Plain Text
Duration : 1 h 55 min
Bit rate : 103 b/s
Count of elements : 1234
Stream size : 87.5 KiB (0%)
Title : R5
Language : Russian
Default : No
Forced : No

Text #3
ID : 10
Format : UTF-8
Codec ID : S_TEXT/UTF8
Codec ID/Info : UTF-8 Plain Text
Duration : 1 h 54 min
Bit rate : 110 b/s
Count of elements : 1503
Stream size : 93.1 KiB (0%)
Title : Tycoon
Language : Russian
Default : No
Forced : No

Text #4
ID : 11
Format : UTF-8
Codec ID : S_TEXT/UTF8
Codec ID/Info : UTF-8 Plain Text
Duration : 1 h 48 min
Bit rate : 1 b/s
Count of elements : 54
Stream size : 1.40 KiB (0%)
Title : Forced
Language : English
Default : No
Forced : No

Text #5
ID : 12
Format : UTF-8
Codec ID : S_TEXT/UTF8
Codec ID/Info : UTF-8 Plain Text
Duration : 1 h 54 min
Bit rate : 67 b/s
Count of elements : 1432
Stream size : 56.9 KiB (0%)
Language : English
Default : No
Forced : No

Text #6
ID : 13
Format : UTF-8
Codec ID : S_TEXT/UTF8
Codec ID/Info : UTF-8 Plain Text
Duration : 1 h 56 min
Bit rate : 72 b/s
Count of elements : 1546
Stream size : 62.0 KiB (0%)
Title : SDH
Language : English
Default : No
Forced : No

Text #7
ID : 14
Format : UTF-8
Codec ID : S_TEXT/UTF8
Codec ID/Info : UTF-8 Plain Text
Duration : 1 h 55 min
Bit rate : 64 b/s
Count of elements : 1173
Stream size : 54.4 KiB (0%)
Title : Commentary
Language : English
Default : No
Forced : No

Menu
00:00:00.000 : en:Chapter 1
00:08:01.606 : en:Chapter 2
00:17:25.169 : en:Chapter 3
00:24:38.143 : en:Chapter 4
00:32:46.464 : en:Chapter 5
00:42:10.278 : en:Chapter 6
00:52:08.876 : en:Chapter 7
01:00:28.750 : en:Chapter 8
01:08:50.335 : en:Chapter 9
01:17:38.696 : en:Chapter 10
01:24:55.549 : en:Chapter 11
01:32:34.716 : en:Chapter 12
01:46:21.125 : en:Chapter 13
01:54:15.098 : en:Chapter 14



Скачать Оружейный барон через торрент https://d.radikal.ru/d16/1903/65/5b418cf500c3.png Скачать, смотреть онлайн Оружейный барон бесплантно в хорошем качестве Описание: Родители Юрия и Виталия Орловых покинули Украину и обосновались в Америке: у них маленький ресторанчик на Брайтон-Бич. Дети же не ... 7 10 3
Торрент: Зарегистрирован [2019-03-20 03:58] · скачан: 16 раз
Статус: T временная
Размер: 68.25 GB
Как cкачать? Как скачать Оружейный барон через торрент | UTorrent

28-11-2019 20:33  


Отключить вcю реклaмy на сайте, в т.ч. и в плеере онлайн просмотра!

    Дорогой пользователь! Огромная просьба, поблагодарите релизера, оцените раздачу и оставьте свои комментарий, если Вы скачали Оружейный барон через торрент бесплатно!!
    Комментировать посты могут только пользователи прошедшие не сложную регистрацию
    Показать сообщения:    


    Оружейный барон через торрент
    Скачать бесплатно Оружейный барон
    Оружейный барон скачать торрент
    Оружейный барон смотреть онлайн
    Cкачать фильм Оружейный барон бесплатно
    Оружейный барон скачать торрент в хорошем качестве
    Оружейный барон смотреть онлайн бесплатно в хорошем качестве
    Вы не можете начинать темы
    Вы не можете отвечать на сообщения
    Вы не можете редактировать свои сообщения
    Вы не можете удалять свои сообщения
    Вы не можете голосовать в опросах
    Вы не можете прикреплять файлы к сообщениям
    Вы можете скачивать файлы
    Оружейный барон / Бог войны / Lord of War [2005, триллер, драма, криминал, UHD BDRemux 2160p] Дубляж + 2xDVO + AVO смотреть онлайн, скачать торрент picoco.icu