MEGA SALE -50% FORZA HORIZON 4 ULTIMATE+ВСЕ DLC+ОНЛАЙН всего за 599р. 299 руб. (супер цена). Внимание количество ограничено!!!

iTunes

1+1

iTunes

мы

iTunes

1

iTunes

Чернобыль

iTunes

Ральф против интернета

Лицензия

ПШазам

Лицензия

Игра престолов

Лицензия

30
pack

ВАЖНО

!!Акция!!

Alien_RageХит недели

RePack

Resident Evil 21

ИГРА 18+

pack

RePack

Metro:Exodus

!!Акция!!

Alien_Rage

RePack

fifa19

RePack

Assassins Creed: Odyssey

RePack

NEED FOR SPEED™ PAYBACK

3 сезон

9 сезон

Бесстыжие 9 сезон

Все сериалы

все сериалы на PB.wtf

RePack

FAR CRY 5
Ребята, катастрофически не хватает 7730р. для оплаты серверов за АВГУСТ (всвязи с блокировками трафик упал в 3 раза), 1-2р., выручайте.
  

Миллиарды / Billions / Сезон 04 / Серии 01-12 из 12 (Джеймс Фоули, Нил Бёргер) [2019, драма, WEB-DL 720p] [MVO] (AlexFilm) piratbit.org

Миллиарды через торрент piratbit.org

Размер: 17.62 GB | Добавлен: 3 мес. 6 д. назад | Торрент скачан:25 раз
Скачать  

20-03-2019 08:04 Миллиарды Скачать торрент  

Миллиарды | Billions Год выпуска: 2019
Страна: США
Жанр: драма
Продолжительность: ~ 00:55:00
Перевод: Профессиональный (многоголосый)| AlexFilm

Режиссёр: Джеймс Фоули, Нил Бёргер

В ролях: Дэмиэн Льюис, Пол Джаматти, Мэгги Сифф, Малин Акерман, Тоби Леонард Мур, Дэвид Костабайл, Дэниэл К. Исаак, Фрэнк Хартс и др.

Описание: В мире много телесериалов, которые рассказывают о богатеях. А вы когда - нибудь смотрели сериал об их противостоянии. О конфликте двух довольно известных личностях расскажет телесериал «Миллиардеры». Этот фильм снят по сценарию Дэвида Левина и Брайна Коппельмана. Именно они написали сценарий к таким известным фильмам, как «13 друзей Оушена», «Шулера», «Девушка по вызову». Сюжет очень необычен. Здесь столкнутся интересы двух влиятельных людей. Один - юрист Чак Роадса. Он прокурор, известный своей принципиальностью. А второй Бобби Аксельрод – финансист. Он король среди себе подобных. Риск для него обычное дело, да и удача ему всегда улыбается.

скриншот  

Релиз -скриншот  
Перевод: Константин Кривоногов
Монтаж и сведение звука: Михаил Шорыгин

Роли озвучивали:
Екатерина Муравицкая
Маргарита Корш
Владимир Курдов
Михаил Суслов
Роман Сопко
Михаил Шорыгин
Андрей Стакионис


Качество: WEBRip 720p
Формат: MKV
Видео: 1280х720 (16:9), 23.976 fps, MPEG-4 AVC 2500 kbps avg, 0.27-0.43 bit/pixel
Аудио 1: AC3, 48,0 КГц, 6 ch, 384 kbps - Rus
Аудио 2: AC3, 48,0 КГц, 6 ch, 384 kbps - Eng
Субтитры: Rus, Eng
Общее
Уникальный идентификатор : 56469219985124988686204225530673073175 (0x2A7B937FE9D75C47A39094C4E54D8C17)
Полное имя : E:\_Сериалы\_Сериалы\Миллиарды\Billions.s04.WEBRip.720p.AlexFilm\Billions.s04e01.WEBRip.720p.AlexFilm.mkv
Формат : Matroska
Версия формата : Version 4
Размер файла : 1,37 Гбайт
Продолжительность : 54 м. 27 с.
Общий поток : 3611 Кбит/сек
Название фильма : Billions 4x01 @ AlexFilm
Дата кодирования : UTC 2019-03-21 18:24:45
Программа кодирования : mkvmerge v31.0.0 ('Dolores In A Shoestand') 64-bit
Библиотека кодирования : libebml v1.3.6 + libmatroska v1.4.9

Видео
Идентификатор : 1
Формат : AVC
Формат/Информация : Advanced Video Codec
Профиль формата : High@L3.1
Настройки формата : CABAC / 4 Ref Frames
Параметр CABAC формата : Да
Параметр RefFrames формата : 4 кадра
Идентификатор кодека : V_MPEG4/ISO/AVC
Продолжительность : 54 м. 27 с.
Вид битрейта : Постоянный
Битрейт : 2841 Кбит/сек
Номинальный битрейт : 6000 Кбит/сек
Ширина : 1280 пикселей
Высота : 720 пикселей
Соотношение сторон : 16:9
Режим частоты кадров : Постоянный
Частота кадров : 23,976 (23976/1000) кадра/сек
Частота кадров в оригинале : 23,976 (24000/1001) кадра/сек
Цветовое пространство : YUV
Субдискретизация насыщенности : 4:2:0
Битовая глубина : 8 бит
Тип развёртки : Прогрессивная
Бит/(Пиксели*Кадры) : 0.129
Размер потока : 1,08 Гбайт (79%)
Default : Да
Forced : Нет
Цветовой диапазон : Limited
Основные цвета : BT.709
Характеристики трансфера : BT.709
Коэффициенты матрицы : BT.709

Аудио #1
Идентификатор : 2
Формат : AC-3
Формат/Информация : Audio Coding 3
Коммерческое название : Dolby Digital
Идентификатор кодека : A_AC3
Продолжительность : 54 м. 27 с.
Вид битрейта : Постоянный
Битрейт : 384 Кбит/сек
Каналы : 6 каналов
Channel layout : L R C LFE Ls Rs
Частота : 48,0 КГц
Частота кадров : 31,250 кадров/сек (1536 SPF)
Битовая глубина : 16 бит
Метод сжатия : С потерями
Размер потока : 150 Мбайт (11%)
Заголовок : DD5.1 AlexFilm
Язык : Russian
ServiceKind/String : Complete Main
Default : Да
Forced : Нет

Аудио #2
Идентификатор : 3
Формат : AC-3
Формат/Информация : Audio Coding 3
Коммерческое название : Dolby Digital
Идентификатор кодека : A_AC3
Продолжительность : 54 м. 27 с.
Вид битрейта : Постоянный
Битрейт : 384 Кбит/сек
Каналы : 6 каналов
Channel layout : L R C LFE Ls Rs
Частота : 48,0 КГц
Частота кадров : 31,250 кадров/сек (1536 SPF)
Битовая глубина : 16 бит
Метод сжатия : С потерями
Размер потока : 150 Мбайт (11%)
Язык : English
ServiceKind/String : Complete Main
Default : Нет
Forced : Нет

Текст #1
Идентификатор : 4
Формат : UTF-8
Идентификатор кодека : S_TEXT/UTF8
Идентификатор кодека/Информация : UTF-8 Plain Text
Продолжительность : 52 м. 5 с.
Битрейт : 140 бит/сек
ElementCount : 935
Размер потока : 53,6 Кбайт (0%)
Язык : Russian
Default : Нет
Forced : Нет

Текст #2
Идентификатор : 5
Формат : UTF-8
Идентификатор кодека : S_TEXT/UTF8
Идентификатор кодека/Информация : UTF-8 Plain Text
Продолжительность : 53 м. 0 с.
Битрейт : 96 бит/сек
ElementCount : 1133
Размер потока : 37,6 Кбайт (0%)
Язык : English
Default : Нет
Forced : Нет

скриншот  скриншот  скриншот  
Когда раздача ведётся путём добавления новых серий, при каждом добавлении создётся новый торрент. Чтобы начать докачку новой серии, пользователям необходимо сделать следующее:
(1) остановить скачивание,
(2) удалить старый торрент у себя из клиента (старые серии удалять не надо),
(3) скачать новый торрент и запустить его у себя в клиенте вместо старого, при этом указать клиенту путь в старую папку, куда и должно происходить скачивание новых серий.
Ваш клиент при этом должен произвести хеширование (проверку) старой папки (если не производит сам - помогите ему сделать это), и будет докачивать только те серии, которых у вас ещё нет. Старые серии при этом не удаляются, а продолжают раздаваться!
Eсли вы уже удалили старые серии, то предотвратить повторную закачку старых серий можно, отжав галочку в соответсвующих местах при запуске нового торрента. По возможности, желательно не удалять старые серии как можно дольше, чтобы релизёр не столько продолжал раздавать старые серии, а смог сконцентрироваться на новых.
piratbit.org



Скачать Миллиарды через торрент https://i109.fastpic.ru/big/2019/0318/15/fff8236b040de6c5ef986144d23e0315.jpg Скачать фильм Миллиарды через торрент бесплантно в хорошем качестве Описание: В мире много телесериалов, которые рассказывают о богатеях. А вы когда - нибудь смотрели сериал об их противостоянии. О конфликте ... 8.8 10 6
Торрент: Зарегистрирован [2019-06-11 19:40] · скачан: 25 раз
Статус: √ проверено
Размер: 17.62 GB
Как cкачать? Как скачать Миллиарды через торрент | qTorrent

% Раздел Тема Автор DL S | L
Зарубежные сериалы [ 40.52 GB ] Миллиарды / Billions / Сезон 04 / Серии 01-12 из 12 [2019 WEB-DL 1080p] [MVO] killermax2013 Скачать
1 | 0


>> Регистрируемся здесь <<






Отзывы и комментарии о схеме читаем и пишем здесь: ---> Отзывы и комментарии о схеме

Новые благодарочки в телеграм довольных пользователей:
скриншот   скриншот   скриншот   скриншот   скриншот
    Дорогой пользователь! Огромная просьба, поблагодарите релизера, оцените раздачу и оставьте свои комментарий, если Вы скачали Миллиарды через торрент бесплатно! Внесите свою лепту в развитие PiratBit!
    Комментировать посты могут только пользователи прошедшие не сложную регистрацию
    Показать сообщения:    

    Миллиарды через торрент
    Скачать бесплатно Миллиарды
    Миллиарды скачать торрент
    Миллиарды смотреть онлайн
    Cкачать фильм Миллиарды бесплатно
    Миллиарды скачать торрент в хорошем качестве
    Миллиарды смотреть онлайн бесплатно в хорошем качестве


    Вы не можете начинать темы
    Вы не можете отвечать на сообщения
    Вы не можете редактировать свои сообщения
    Вы не можете удалять свои сообщения
    Вы не можете голосовать в опросах
    Вы не можете прикреплять файлы к сообщениям
    Вы можете скачивать файлы