MEGA SALE -50% FORZA HORIZON 4 ULTIMATE+ВСЕ DLC+ОНЛАЙН всего за 599р. 299 руб. (супер цена). Внимание количество ограничено!!!

iTunes

1+1

iTunes

мы

iTunes

1

iTunes

Чернобыль

iTunes

Ральф против интернета

Лицензия

ПШазам

Лицензия

Игра престолов

Лицензия

30
pack

ВАЖНО

!!Акция!!

Alien_RageХит недели

RePack

Resident Evil 21

ИГРА 18+

pack

RePack

Metro:Exodus

!!Акция!!

Alien_Rage

RePack

fifa19

RePack

Assassins Creed: Odyssey

RePack

NEED FOR SPEED™ PAYBACK

3 сезон

9 сезон

Бесстыжие 9 сезон

Все сериалы

все сериалы на PB.wtf

RePack

FAR CRY 5
Ребята, катастрофически не хватает 7730р. для оплаты серверов за АВГУСТ (всвязи с блокировками трафик упал в 3 раза), 1-2р., выручайте.
  

Гринч / The Grinch (Ярроу Чейни, Скотт Моужер) [2018, мультфильм, фэнтези, комедия, семейный, BD Remux 1080p] MVO [HDRezka Studio] +DUB [Лицензия] piratbit.org

Гринч через торрент piratbit.org

Размер: 22.55 GB | Добавлен: 5 мес. 13 д. назад | Торрент скачан:10 раз
Скачать  

22-03-2019 04:18 Гринч Скачать торрент  

Гринч / The Grinch
Год выпуска: 2018
Страна: Китай, США
Жанр: мультфильм, фэнтези, комедия, семейный
Продолжительность: 01:25:49
Перевод:

#1: Дублированный | Лицензия
#2: Профессиональный многоголосый | HDRezka Studio

Субтитры: Русские (Forced, full), английские

Режиссер: Ярроу Чейни, Скотт Моужер

rating

В ролях:

Бенедикт Камбербэтч (The Grinch, озвучка), Кэмерон Сили (Cindy-Lou Who, озвучка), Рашида Джонс (Donna Who, озвучка), Фаррелл Уильямс (рассказчик, озвучка), Тристан О’Хэйр (Groopert, озвучка), Кенан Томпсон (Mr. Bricklebaum, озвучка), Сэм Лаваньино (Ozzy, озвучка), Рамон Хэмилтон (Axl, озвучка), Анджела Лэнсбери (Mayor McGerkle, озвучка), Скарлетт Эстевес (Izzy, озвучка), Майкл Битти (Store Clerk, озвучка), Лори Алан (дополнительные голоса, озвучка)
Описание:

Любой бы на месте Гринча позеленел и взбесился. Как порядочный интроверт, он живёт в тёмной пещере на самой вершине горы подальше ото всех, но эти «все» готовят грандиознейшее празднование нового года. Они шумят, всё украшают и дико бесят. Кто бы отказал себе в удовольствии испортить праздник? Гринч решает украсть Новый год.

Качество: BD Remux 1080p
Формат: MKV

Видео: MPEG-4 AVC, 1920x1080, 32 Mbit/s, 23.976 fps
Аудио#1: 48 kHz, AC3, 5.1, 640 Kbps | Лицензия | RUS |
Аудио#2: 48 kHz, AC3, 2.0, 192 Kbps | HDRezka Studio | RUS |
Аудио#3: 48 kHz, TrueHD, 7.1, 4289 Kbps | Оригинал | ENG |
Аудио#4: 48 kHz, AC3, 5.1, 448 Kbps | Оригинал | ENG |
скриншот  скриншот  скриншот  скриншот  скриншот  

General
Unique ID : 107498149736177059490361811212391508511 (0x50DF63FB5E1007C906D797BCBBA16A1F)
Complete name : D:Video111The.Grinch.2018.Lic.BDREMUX.1080p.seleZen.mkv
Format : Matroska
Format version : Version 4
File size : 22.5 GiB
Duration : 1 h 25 min
Overall bit rate mode : Variable
Overall bit rate : 37.6 Mb/s
Movie name : The Grinch 2018 from селезень
Encoded date : UTC 2019-04-05 22:39:25
Writing application : mkvmerge v32.0.0 ('Astral Progressions') 64-bit
Writing library : libebml v1.3.7 + libmatroska v1.5.0

Video
ID : 1
Format : AVC
Format/Info : Advanced Video Codec
Format profile : High@L4.1
Format settings : CABAC / 4 Ref Frames
Format settings, CABAC : Yes
Format settings, ReFrames : 4 frames
Codec ID : V_MPEG4/ISO/AVC
Duration : 1 h 25 min
Bit rate mode : Variable
Bit rate : 32.0 Mb/s
Maximum bit rate : 35.0 Mb/s
Width : 1 920 pixels
Height : 1 080 pixels
Display aspect ratio : 16:9
Frame rate mode : Constant
Frame rate : 23.976 (24000/1001) FPS
Color space : YUV
Chroma subsampling : 4:2:0
Bit depth : 8 bits
Scan type : Progressive
Bits/(Pixel*Frame) : 0.643
Stream size : 19.2 GiB (85%)
Language : English
Default : Yes
Forced : No

Audio #1
ID : 2
Format : AC-3
Format/Info : Audio Coding 3
Commercial name : Dolby Digital
Codec ID : A_AC3
Duration : 1 h 25 min
Bit rate mode : Constant
Bit rate : 640 kb/s
Channel(s) : 6 channels
Channel layout : L R C LFE Ls Rs
Sampling rate : 48.0 kHz
Frame rate : 31.250 FPS (1536 SPF)
Bit depth : 16 bits
Compression mode : Lossy
Stream size : 393 MiB (2%)
Title : Dub [License]
Language : Russian
Service kind : Complete Main
Default : Yes
Forced : Yes

Audio #2
ID : 3
Format : AC-3
Format/Info : Audio Coding 3
Commercial name : Dolby Digital
Codec ID : A_AC3
Duration : 1 h 25 min
Bit rate mode : Constant
Bit rate : 192 kb/s
Channel(s) : 2 channels
Channel layout : L R
Sampling rate : 48.0 kHz
Frame rate : 31.250 FPS (1536 SPF)
Bit depth : 16 bits
Compression mode : Lossy
Stream size : 118 MiB (1%)
Title : MVO [HDRezka Studio]
Language : Russian
Service kind : Complete Main
Default : No
Forced : No

Audio #3
ID : 4
Format : MLP FBA 16-ch
Format/Info : Meridian Lossless Packing FBA with 16-channel presentation
Commercial name : Dolby TrueHD with Dolby Atmos
Codec ID : A_TRUEHD
Duration : 1 h 25 min
Bit rate mode : Variable
Bit rate : 4 289 kb/s
Maximum bit rate : 6 513 kb/s
Channel(s) : 8 channels
Channel layout : L R C LFE Ls Rs Lb Rb
Sampling rate : 48.0 kHz
Frame rate : 1 200.000 FPS (40 SPF)
Compression mode : Lossless
Stream size : 2.57 GiB (11%)
Title : Original
Language : English
Default : No
Forced : No
Number of dynamic objects : 11
Bed channel count : 1 channel
Bed channel configuration : LFE

Audio #4
ID : 5
Format : AC-3
Format/Info : Audio Coding 3
Commercial name : Dolby Digital
Codec ID : A_AC3
Duration : 1 h 25 min
Bit rate mode : Constant
Bit rate : 448 kb/s
Channel(s) : 6 channels
Channel layout : L R C LFE Ls Rs
Sampling rate : 48.0 kHz
Frame rate : 31.250 FPS (1536 SPF)
Bit depth : 16 bits
Compression mode : Lossy
Stream size : 275 MiB (1%)
Language : English
Service kind : Complete Main
Default : No
Forced : No

Text #1
ID : 6
Format : UTF-8
Codec ID : S_TEXT/UTF8
Codec ID/Info : UTF-8 Plain Text
Duration : 1 h 24 min
Bit rate : 1 b/s
Count of elements : 37
Stream size : 846 Bytes (0%)
Title : Forced
Language : Russian
Default : Yes
Forced : Yes

Text #2
ID : 7
Format : UTF-8
Codec ID : S_TEXT/UTF8
Codec ID/Info : UTF-8 Plain Text
Duration : 1 h 25 min
Bit rate : 61 b/s
Count of elements : 992
Stream size : 38.7 KiB (0%)
Title : Full
Language : Russian
Default : No
Forced : No

Text #3
ID : 8
Format : UTF-8
Codec ID : S_TEXT/UTF8
Codec ID/Info : UTF-8 Plain Text
Duration : 1 h 17 min
Bit rate : 52 b/s
Count of elements : 1024
Stream size : 30.0 KiB (0%)
Title : Full
Language : English
Default : No
Forced : No

Text #4
ID : 9
Format : UTF-8
Codec ID : S_TEXT/UTF8
Codec ID/Info : UTF-8 Plain Text
Duration : 1 h 20 min
Bit rate : 60 b/s
Count of elements : 1304
Stream size : 35.7 KiB (0%)
Title : SDH
Language : English
Default : No
Forced : No

Menu
00:00:00.000 : en:Chapter 1
00:05:40.298 : en:Chapter 2
00:10:35.927 : en:Chapter 3
00:14:14.103 : en:Chapter 4
00:17:45.106 : en:Chapter 5
00:22:19.296 : en:Chapter 6
00:26:28.337 : en:Chapter 7
00:30:45.093 : en:Chapter 8
00:34:46.584 : en:Chapter 9
00:38:37.190 : en:Chapter 10
00:44:40.595 : en:Chapter 11
00:47:27.678 : en:Chapter 12
00:52:37.488 : en:Chapter 13
00:56:33.181 : en:Chapter 14
01:01:04.995 : en:Chapter 15
01:05:34.639 : en:Chapter 16
01:07:23.456 : en:Chapter 17
01:12:14.914 : en:Chapter 18
01:14:12.782 : en:Chapter 19
01:18:08.309 : en:Chapter 20

piratbit.org



Скачать Гринч через торрент http://img14.lostpic.net/2019/03/21/39fd564cdd23fb58033ebb428d703788.jpg Скачать фильм Гринч через торрент бесплантно в хорошем качестве Описание: Любой бы на месте Гринча позеленел и взбесился. Как порядочный интроверт, он живёт в тёмной пещере на самой вершине горы подальше ... 10 10 7
Торрент: Зарегистрирован [2019-04-05 23:09] · скачан: 10 раз
Статус: √ проверено
Размер: 22.55 GB
Как cкачать? Как скачать Гринч через торрент | qTorrent

% Раздел Тема Автор DL S | L
Мультфильмы (48-60 fps) [ 19.63 GB ] Гринч / The Grinch [2018 мультфильм BDRip 1080p 60 fps] sheker187 Скачать
1 | 0
Ultra HD (UHD: 2K, 4K, 8K) [ 81.39 GB ] Гринч / The Grinch [2018 мультфильм UHD Blu-Ray EUR 2160p] [Dolby Vision] DUB [] bober100 Скачать
1 | 0
3D Мультфильмы [ 5.56 GB ] Гринч 3Д / The Grinch 3D [2018 мультфильм BDRip 1080p] [Half OverUnder / Вертикальная анаморфная стереопара] DUB [] bober100 Скачать
1 | 0
Ultra HD (UHD: 2K, 4K, 8K) [ 10.24 GB ] Гринч / The Grinch [2018 мультфильм UHD BDRip 2160p] [SDR] DUB [] + 2xMVO sheker187 Скачать
1 | 0
Ultra HD (UHD: 2K, 4K, 8K) [ 8.1 GB ] Гринч / The Grinch [2018 мультфильм UHD BDRip 2160p] DUB [] + 2xMVO sheker187 Скачать
1 | 0
Иностранные мультфильмы [ 1.82 GB ] Гринч / The Grinch [2018 мультфильм BDRip-AVC] - ExKinoRay Enigma2010 Скачать
4 | 0
Зарубежные Мультфильмы (BDRip 1080p, 720p, Blu-ray, BD-Remux) [ 4.17 GB ] Гринч / The Grinch [2018 мультфильм BDRip 720p] MVO [HDRezka Studio] +DUB [] bober100 Скачать
3 | 0


>> Регистрируемся здесь <<






Отзывы и комментарии о схеме читаем и пишем здесь: ---> Отзывы и комментарии о схеме

Новые благодарочки в телеграм довольных пользователей:
скриншот   скриншот   скриншот   скриншот   скриншот
    Дорогой пользователь! Огромная просьба, поблагодарите релизера, оцените раздачу и оставьте свои комментарий, если Вы скачали Гринч через торрент бесплатно! Внесите свою лепту в развитие PiratBit!
    Комментировать посты могут только пользователи прошедшие не сложную регистрацию
    Показать сообщения:    

    Гринч через торрент
    Скачать бесплатно Гринч
    Гринч скачать торрент
    Гринч смотреть онлайн
    Cкачать фильм Гринч бесплатно
    Гринч скачать торрент в хорошем качестве
    Гринч смотреть онлайн бесплатно в хорошем качестве


    Вы не можете начинать темы
    Вы не можете отвечать на сообщения
    Вы не можете редактировать свои сообщения
    Вы не можете удалять свои сообщения
    Вы не можете голосовать в опросах
    Вы не можете прикреплять файлы к сообщениям
    Вы можете скачивать файлы