Лицензия

MVO

1

1 сезон

Лицензия

Лицензия

13

MVO

1 сезон

Deluxe Edition

pack

Рекомендуем

30

Repack

ВАЖНО

ВАЖНО

Ghostwire

RePack

jed

RePack

fifa19

RePack

RDR2

RePack

NEED FOR SPEED™ PAYBACK

RePack

Кинопоиск HD

 Острые козырьки 6 сезон

6 сезон

FAR CRY 6

RePack

Лицензия

MVO

1

1 сезон

1 сезон

Лицензия

  

Живые и Мёртвые (Александр Столпер) [1963, СССР, драма, военный, DVDRip-AVC от AVP Studio]

Живые и Мёртвые через торрент piratbit.org

Размер: 2.18 GB | Добавлен: 3 года 6 мес. назад | Торрент скачан:49 раз
Смотреть онлайн Живые и Мёртвые | Скачать   

22-03-2019 10:10 Живые и Мёртвые Скачать торрент  

Живые и Мёртвые
Страна: СССР
Производство: Мосфильм
Жанр: драма, военный
Год выпуска: 1963
Продолжительность: 1:33:37+01:34:52

Перевод: не требуется
Оригинальная аудиодорожка: русский
Cубтитры: нет

Режиссер: Александр Столпер

В ролях: Кирилл Лавров, Анатолий Папанов, Олег Ефремов, Людмила Крылова, Олег Табаков, Виктор Авдюшко, Борис Чирков, Евгений Самойлов, Евгений Шутов, Михаил Глузский, Михаил Ульянов, Любовь Соколова...

Описание:
Журналиста Ивана Синцова известие о вероломном нападении нацистской Германии застает во время южного отпуска. Как фронтовой корреспондент он становится свидетелем тяжелых событий первых месяцев войны — многочисленных отступлений 1941 года…

Исходник: DVD9 R5
Тип релиза: DVDRip-AVC
Контейнер: MKV

Видео: 704->745x406 (16:9), 25 fps, H264 ~ 1463 kbps avg, 0.205 bit/pixel
Аудио: 48 kHz, Dolby AC3 2.0, 192 kbps

Раздача от:
Общее
Полное имя : Zhivye.i.mertvye.1963.DVDRip-AVC_[Youtracker]_by_AVP Studio\01.mkv
Формат : Matroska
Версия формата : Version 2
Размер файла : 1,09 Гбайт
Продолжительность : 1 ч. 33 м.
Общий поток : 1657 Кбит/сек
Дата кодирования : UTC 2013-04-08 15:40:51
Программа кодирования : mkvmerge v5.0.1 ('Es ist Sommer') built on Nov 6 2011 16:23:40
Библиотека кодирования : libebml v1.2.2 + libmatroska v1.3.0

Видео
Идентификатор : 1
Формат : AVC
Формат/Информация : Advanced Video Codec
Профиль формата : High@L4.1
Параметр CABAC формата : Да
Параметр ReFrames формата : 11 кадров
Идентификатор кодека : V_MPEG4/ISO/AVC
Продолжительность : 1 ч. 33 м.
Битрейт : 1463 Кбит/сек
Ширина : 704 пикселя
Высота : 406 пикселей
Соотношение сторон : 16:9
Соотношение сторон в оригинале : 16:9
Частота кадров : 25,000 кадров/сек
Цветовое пространство : YUV
Субдискретизация насыщенности : 4:2:0
Битовая глубина : 8 бит
Тип развёртки : Прогрессивная
Бит/(Пиксели*Кадры) : 0.205
Размер потока : 961 Мбайт (86%)
Библиотека кодирования : x264 core 119 r2106 07efeb4
Настройки программы : cabac=1 / ref=11 / deblock=1:-2:-1 / analyse=0x3:0x113 / me=umh / subme=9 / psy=1 / psy_rd=1.00:0.20 / mixed_ref=1 / me_range=32 / chroma_me=1 / trellis=1 / 8x8dct=1 / cqm=0 / deadzone=21,11 / fast_pskip=0 / chroma_qp_offset=-3 / threads=3 / sliced_threads=0 / nr=0 / decimate=0 / interlaced=0 / bluray_compat=0 / constrained_intra=0 / bframes=8 / b_pyramid=2 / b_adapt=2 / b_bias=0 / direct=3 / weightb=1 / open_gop=0 / weightp=2 / keyint=250 / keyint_min=25 / scenecut=40 / intra_refresh=0 / rc_lookahead=60 / rc=2pass / mbtree=1 / bitrate=1463 / ratetol=1.0 / qcomp=0.60 / qpmin=0 / qpmax=69 / qpstep=4 / cplxblur=20.0 / qblur=0.5 / ip_ratio=1.40 / aq=1:1.00
Default : Да
Forced : Нет

Аудио
Идентификатор : 2
Формат : AC-3
Формат/Информация : Audio Coding 3
Расширение режима : CM (complete main)
Идентификатор кодека : A_AC3
Продолжительность : 1 ч. 33 м.
Вид битрейта : Постоянный
Битрейт : 192 Кбит/сек
Каналы : 2 канала
Расположение каналов : Front: L R
Частота : 48,0 КГц
Битовая глубина : 16 бит
Метод сжатия : С потерями
Размер потока : 129 Мбайт (12%)
Default : Да
Forced : Нет



Скачать Живые и Мёртвые через торрент http://i52.fastpic.ru/big/2013/0407/32/8b472ce392a11a9b28fbdbc444321e32.png Скачать, смотреть онлайн Живые и Мёртвые бесплантно в хорошем качестве Описание:Журналиста Ивана Синцова известие о вероломном нападении нацистской Германии застает во время южного отпуска. Как фронтовой ... 10 10 2
Info! Золотая раздача, скачанное не засчитывается.
Торрент: Зарегистрирован [2019-03-22 10:10] · скачан: 49 раз
Статус: √ проверено
Размер: 2.18 GB
Как cкачать? Как скачать Живые и Мёртвые через торрент | UTorrent

% Раздел Тема Автор DL S | L
Кино СССР [ 1.45 GB ] Живые и Мёртвые | | DVDRip от AVP Studio AVP Studio Скачать
1 | 0
Кино СССР [ 2.18 GB ] Живые и Мёртвые | | DVDRip от AVP Studio AVP Studio Скачать
1 | 0

28-11-2019 20:33  

Отключить вcю реклaмy на сайте

    Дорогой пользователь! Огромная просьба, поблагодарите релизера, оцените раздачу и оставьте свои комментарий, если Вы скачали Живые и Мёртвые через торрент бесплатно!!
    Комментировать посты могут только пользователи прошедшие не сложную регистрацию
    Показать сообщения:    


    Живые и Мёртвые через торрент
    Скачать бесплатно Живые и Мёртвые
    Живые и Мёртвые скачать торрент
    Живые и Мёртвые смотреть онлайн
    Cкачать фильм Живые и Мёртвые бесплатно
    Живые и Мёртвые скачать торрент в хорошем качестве
    Живые и Мёртвые смотреть онлайн бесплатно в хорошем качестве
    Вы не можете начинать темы
    Вы не можете отвечать на сообщения
    Вы не можете редактировать свои сообщения
    Вы не можете удалять свои сообщения
    Вы не можете голосовать в опросах
    Вы не можете прикреплять файлы к сообщениям
    Вы можете скачивать файлы