смотреть онлайн / скачать торрент Слово пацана. Кровь на асфальте

1 сезон

смотреть онлайн / скачать торрент Убийца

Дубляж

смотреть онлайн / скачать торрент Монарх: Наследие монстров

1 сезон

Активация Assassins Creed Mirage

Deluxe

Активация Avatar Frontiers of Pandora ULTIMATE

Premium

Активация Atomic Heart - Annihilation Instinct

ВСЕ DLC

смотреть онлайн / скачать торрент Создатель

Дубляж

смотреть онлайн / скачать торрент Цикады

1 сезон

смотреть онлайн / скачать торрент Фарго / Сезон: 5

5 сезон

смотреть онлайн / скачать торрент Убийцы цветочной луны

Дубляж

Рекомендуем

Рекомендуем

ВАЖНО

ВАЖНО

скачать торрент Lords of the Fallen

Steam-Rip

ARMORED CORE™ VI FIRES OF RUBICON™

Steam-Rip

jed

RePack

PAYDAY 3

Пиратка

RDR2

RePack

Hogwarts Legacy

Steam-Rip

смотреть онлайн / скачать торрент Захваченный

Невафильм

смотреть онлайн / скачать торрент Острые козырьки 6 сезон

6 сезон

FAR CRY 6

RePack

скачать торрент Dead Island™ 2

EGS-Rip

скачать торрент The Quarry

Steam-Rip

  

Без страха и упрёка (Александр Митта) [1962, cccp, драма, приключения, семейный, DVDRip от AVP Studio]

Без страха и упрёка через торрент piratbit.org

Размер: 1.09 GB | Добавлен: 4 года 8 мес. назад | Торрент скачан:9 раз
Alan Wake 2 Deluxe активация

2019-03-25 07:43 Без страха и упрёка Скачать торрент  

Без страха и упрёка
Страна: cccp
Производство: Мосфильм

Жанр: драма, приключения, семейный
Год выпуска: 1963
Продолжительность: 01:20:04

Перевод: Не требуется
Cубтитры: нет
Оригинальная аудиодорожка: русский

Режиссер: Александр Митта

В ролях:
Алла Витрук, Витя Глазков, Николай Бурляев, Савелий Крамаров, Николай Волков (старший), Лев Золотухин, Марианна Стриженова, Клавдия Шинкина, Людмила Марченко, Анатолий Юшко, Елена Максимова, Николай Кодин, Владимир Лебедев...
Об актёрах подробней

Описание:
В Москве Репнин должен был отгрузить оборудование и сразу же вылететь в Заусолье, где его ждала экспедиция. Но в московской сутолоке Репнин потерял деньги, которые нашли Вадик, Юра и Тоша. Дети вошли в положение пострадавшего и решили найти его. Ключом к поискам стала программа рысистых испытаний, в которую были завернуты деньги. Однако дорога на ипподром оказалась длинной и интересной...

Источник: DVD5 R5
Качество видео: DVDRip
Формат видео: AVI

Видео: 688х512 (4:3), 25,000 fps, XviD ~ 1743 kbps avg, 0.198 bit/pixel
Аудио: 48 kHz, Dolby Digital AC3 2.0, 192 kbps

Раздача от:
Общее
Полное имя : Bez.straha.i.upreka.1963.DVDRip_[New-team]_by_AVP_Studio.avi
Формат : AVI
Формат/Информация : Audio Video Interleave
Размер файла : 1,09 Гбайт
Продолжительность : 1 ч. 20 м.
Общий поток : 1945 Кбит/сек
Программа кодирования : VirtualDubMod 1.5.10.3 | www.virtualdub-fr.org || (build 2550/release)
Библиотека кодирования : VirtualDubMod build 2550/release

Видео
Идентификатор : 0
Формат : MPEG-4 Visual
Профиль формата : Advanced Simple@L5
Настройки формата : BVOP1 / Custom Matrix
Параметр BVOP формата : 1
Параметр QPel формата : Нет
Параметр GMC формата : Без точки перехода
Параметр матрицы формата : Выборочная
Идентификатор кодека : XVID
Идентификатор кодека/Подсказка : XviD
Продолжительность : 1 ч. 20 м.
Битрейт : 1743 Кбит/сек
Ширина : 688 пикселей
Высота : 512 пикселей
Соотношение сторон : 4:3
Частота кадров : 25,000 кадров/сек
Цветовое пространство : YUV
Субдискретизация насыщенности : 4:2:0
Битовая глубина : 8 бит
Тип развёртки : Прогрессивная
Метод сжатия : С потерями
Бит/(Пиксели*Кадры) : 0.198
Размер потока : 998 Мбайт (90%)
Библиотека кодирования : XviD 73

Аудио
Идентификатор : 1
Формат : AC-3
Формат/Информация : Audio Coding 3
Коммерческое название : Dolby Digital
Идентификатор кодека : 2000
Продолжительность : 1 ч. 20 м.
Вид битрейта : Постоянный
Битрейт : 192 Кбит/сек
Каналы : 2 канала
Channel layout : L R
Частота : 48,0 КГц
Частота кадров : 31,250 кадров/сек (1536 SPF)
Битовая глубина : 16 бит
Метод сжатия : С потерями
Размер потока : 110 Мбайт (10%)
Выравнивание : Разделение по промежуткам
Продолжительность промежутка : 40 мс. (1,00 видеокадр)
Время предзагрузки промежутка : 500 мс


Смотрeть онлайн Фильм Без страха и упрёка в хорошем HD 1080 качестве



Описание:В Москве Репнин должен был отгрузить оборудование и сразу же вылететь в Заусолье, где его ждала экспедиция. Но в московской ... https://picplus.ru/img/1903/25/2539b079.png https://picplus.ru/img/1903/25/2539b079.png 2019-03-25 07:43 Cмотреть онлайн Без страха и упрёка true ru Скачать Без страха и упрёка через торрент, смотреть онлайн Без страха и упрёка https://picplus.ru/img/1903/25/2539b079.png Скачать торрент Без страха и упрёка , смотреть онлайн Без страха и упрёка , бесплатно в хорошем качестве Описание:В Москве Репнин должен был отгрузить оборудование и сразу же вылететь в Заусолье, где его ждала экспедиция. Но в московской ... 10 10 1
Торрент: Зарегистрирован [2019-03-25 07:43] · скачан: 9 раз
Статус: √ проверено
Размер: 1.09 GB
Как cкачать? Как скачать Без страха и упрёка через торрент | UTorrent | Поделиться в телеграм

% Раздел Тема Автор DL S | L
Старые фильмы [ 1.09 GB ] Без страха и упрёка | | DVDRip-AVC от AVP Studio AVP Studio Скачать
1 | 0

28-11-2019 20:33  


Отключить вcю реклaмy на сайте!

    Дорогой пользователь! Огромная просьба, поблагодарите релизера, оцените раздачу и оставьте свои комментарий, если Вы скачали Без страха и упрёка через торрент бесплатно!!
    Комментировать посты могут только пользователи прошедшие не сложную регистрацию
    Показать сообщения:    


    смотреть онлайн Без страха и упрёка
    Без страха и упрёка через торрент
    Скачать бесплатно Без страха и упрёка
    Без страха и упрёка скачать торрент
    Без страха и упрёка смотреть онлайн
    Cкачать фильм Без страха и упрёка бесплатно
    Без страха и упрёка скачать торрент в хорошем качестве
    Без страха и упрёка смотреть онлайн бесплатно в хорошем качестве
    Вы не можете начинать темы
    Вы не можете отвечать на сообщения
    Вы не можете редактировать свои сообщения
    Вы не можете удалять свои сообщения
    Вы не можете голосовать в опросах
    Вы не можете прикреплять файлы к сообщениям
    Вы можете скачивать файлы