новый адрес
Мега распродажа FORZA HORIZON 4 ULTIMATE+ВСЕ DLC+ОНЛАЙН всего за 499р. 349 руб. (супер цена). Внимание количество ограничено!!!

iTunes

1+1

iTunes

мы

iTunes

1

iTunes

Чернобыль

iTunes

Ральф против интернета

Лицензия

ПШазам

Лицензия

Игра престолов

Лицензия

30
pack

ВАЖНО

!!Акция!!

Alien_RageХит недели

RePack

Resident Evil 21

ИГРА 18+

pack

RePack

Metro:Exodus

!!Акция!!

Alien_Rage

RePack

fifa19

RePack

Assassins Creed: Odyssey

RePack

NEED FOR SPEED™ PAYBACK

3 сезон

9 сезон

Бесстыжие 9 сезон

Все сериалы

все сериалы на PB.wtf

RePack

FAR CRY 5
Ребята, катастрофически не хватает 1900р. для оплаты серверов за Октябрь (всвязи с блокировками трафик упал в 3 раза), 1-2р., выручайте.
  

Мечтай о большем: Свой мир строим сами в 3Д / Dream Big: Engineering Our World 3D (Грег МакГилливрэй / Greg MacGillivray) [2017, документальный, познавательный, короткометражка, BDRip, 1080p] OverUnder / Вертикальная стереопара piratbit.org

Мечтай о большем: Свой мир строим сами в 3Д через торрент piratbit.org

Размер: 8.22 GB | Добавлен: 7 мес. назад | Торрент скачан:10 раз
Скачать  

26-03-2019 10:34 Мечтай о большем: Свой мир строим сами в 3Д Скачать торрент  

Мечтай о большем: Свой мир строим сами / Dream Big: Engineering Our World

Год выпуска: 2017
Страна: США (MacGillivray Freeman Films)
Жанр: документальный, познавательный, короткометражка
Продолжительность: 00:42:15

Перевод: Любительский одноголосый закадровый (NoNamed) (перевод любительский - Ash61)
Русские субтитры: нет
Режиссер: Грег МакГилливрэй / Greg MacGillivray
Рассказчик на английском: Джефф Бриджес / Jeff Bridges

Описание: Сегодня работа инженеров как никогда актуальна и важна для человечества. Она отражается на культуре и мышлении, благодаря чему новое поколение достигает колоссальных успехов. Именно молодые специалисты создают мир будущего — мир своей мечты. Фильм поведает зрителю, как инженеры могут изменить не только повседневную жизнь, но и целые социумы: от Римских Арок до Великой Китайской стены, от жизненно необходимого моста, соединяющего деревушки Гаити, — до МКС, от роботов-амфибий — до захватывающих дух американских горок, небоскребов и пневмотоннелей, транспорт в которых однажды сможет передвигаться со скоростью 1200 км/ч.

Дополнительная информация по релизу: Часть эпизодов в псевдо-3Д, как обычно у Greg MacGillivray.
Снято IMAX 3D камерами.

Сэмпл: http://sendfile.su/1484533

Качество: BDrip, 1080p
Контейнер: MKV
Формат 3D: OverUnder / Вертикальная стереопара
Порядок ракурсов: левый ракурс первый
Видео кодек: x264
Аудио кодек: AC3
Видео: AVC / High@L5.0 / 23,976 fps / 1920х2160 / 26,0 Мбит/сек
Аудио: Русский / AC3 / 48 KHz / 5.1 ch / 640 Кбит/сек (перевод любительский - Ash61)
Аудио 2: Английский / AC3 / 48 KHz / 5.1 ch / 640 Кбит/сек

ВНИМАНИЕ ! На встроенных ТВ-плеерах работать не будет!!!

ТВ Samsung в названии которого есть надпись Ultra HD , и LG Ultra HD 800 серии, LG C6P, Xiaomi Mi TV 2 воспроизводят полные стереопары встроенными плеерами
Железные плееры на которых воспроизводятся полные стереопары:Popcorn C-200 , Dune HD Smart D1 , Dune HD DUO , Dune HD Smart H1 , Dune HD Smart B1 , Dune HD Max , Dune HD TV-303D, Dune HD TV-102, Dune HD Base 3D, Philips HMP7001, Aura HD, MECOOL BB2
Чтобы изображение было на весь экран в плеере выставляем, если рип 1920х1600 - то выставляем 2.35:1 , если 1920х2160 - то выставляем 16:9
Общее
Уникальный идентификатор : 208168099864952726664858860260580984702 (0x9C9BB7BB29636F1D88FFD85F44C1077E)
Полное имя : E:\фильмы\Dream Big Engineering Our World.Rip by SeRoGa00.mkv
Формат : Matroska
Версия формата : Version 2
Размер файла : 8,22 Гбайт
Продолжительность : 42 м.
Общий поток : 27,8 Мбит/сек
Дата кодирования : UTC 2019-03-26 09:58:50
Программа кодирования : mkvmerge v3.4.0 ('Rapunzel') сборка от May 15 2010 09:38:20
Библиотека кодирования : libebml v0.8.0 + libmatroska v0.9.0

Видео
Идентификатор : 1
Формат : AVC
Формат/Информация : Advanced Video Codec
Профиль формата : High@L5.0
Параметр CABAC формата : Да
Параметр ReFrames формата : 4 кадра
Идентификатор кодека : V_MPEG4/ISO/AVC
Продолжительность : 42 м.
Битрейт : 26,0 Мбит/сек
Ширина : 1920 пикселей
Высота : 2160 пикселей
Соотношение сторон : 0,889
Частота кадров : 23,976 кадра/сек
Цветовое пространство : YUV
Субдискретизация насыщенности : 4:2:0
Битовая глубина : 8 бит
Тип развёртки : Прогрессивная
Бит/(Пиксели*Кадры) : 0.262
Размер потока : 7,68 Гбайт (93%)
Заголовок : Rip by SeRoGa00
Библиотека кодирования : x264 core 155 r2901 7d0ff22
Настройки программы : cabac=1 / ref=4 / deblock=1:-3:-3 / analyse=0x3:0x113 / me=umh / subme=10 / psy=1 / psy_rd=1.00:0.15 / mixed_ref=1 / me_range=24 / chroma_me=1 / trellis=2 / 8x8dct=1 / cqm=0 / deadzone=21,11 / fast_pskip=1 / chroma_qp_offset=-3 / threads=18 / lookahead_threads=6 / sliced_threads=0 / nr=0 / decimate=0 / interlaced=0 / bluray_compat=0 / constrained_intra=0 / bframes=10 / b_pyramid=2 / b_adapt=2 / b_bias=0 / direct=3 / weightb=1 / open_gop=0 / weightp=2 / keyint=250 / keyint_min=23 / scenecut=40 / intra_refresh=0 / rc_lookahead=60 / rc=crf / mbtree=1 / crf=16.5 / qcomp=0.60 / qpmin=10 / qpmax=69 / qpstep=4 / vbv_maxrate=40000 / vbv_bufsize=40000 / crf_max=0.0 / nal_hrd=none / filler=0 / ip_ratio=1.40 / aq=1:1.00
Язык : English
Default : Нет
Forced : Нет

Аудио #1
Идентификатор : 2
Формат : AC-3
Формат/Информация : Audio Coding 3
Расширение режима : CM (complete main)
Параметр Endianness формата : Big
Идентификатор кодека : A_AC3
Продолжительность : 42 м.
Вид битрейта : Постоянный
Битрейт : 640 Кбит/сек
Каналы : 6 каналов
Расположение каналов : Front: L C R, Side: L R, LFE
Частота : 48,0 КГц
Битовая глубина : 16 бит
Метод сжатия : С потерями
Размер потока : 193 Мбайт (2%)
Язык : Russian
Default : Да
Forced : Нет

Аудио #2
Идентификатор : 3
Формат : AC-3
Формат/Информация : Audio Coding 3
Расширение режима : CM (complete main)
Параметр Endianness формата : Big
Идентификатор кодека : A_AC3
Продолжительность : 42 м.
Вид битрейта : Постоянный
Битрейт : 640 Кбит/сек
Каналы : 6 каналов
Расположение каналов : Front: L C R, Side: L R, LFE
Частота : 48,0 КГц
Битовая глубина : 16 бит
Метод сжатия : С потерями
Размер потока : 193 Мбайт (2%)
Язык : English
Default : Нет
Forced : Нет

Меню
00:00:00.000 : :1
00:03:29.000 : :2
00:05:07.807 : :3
00:10:10.610 : :4
00:10:54.445 : :5
00:13:56.753 : :6
00:17:17.954 : :7
00:21:56.649 : :8
00:23:36.290 : :9
00:26:51.360 : :10
00:33:02.272 : :11
00:35:42.640 : :12
00:38:17.253 : :13
00:41:32.990 : :14
скриншот  

скриншот  

скриншот  

скриншот  

скриншот  

скриншот  
piratbit.org



Скачать Мечтай о большем: Свой мир строим сами в 3Д через торрент https://b.radikal.ru/b40/1903/4b/987bce5f6016.png Скачать фильм Мечтай о большем: Свой мир строим сами в 3Д через торрент бесплантно в хорошем качестве Описание: Сегодня работа инженеров как никогда актуальна и важна для человечества. Она отражается на культуре и мышлении, благодаря чему ... 5 10 1
Торрент: Зарегистрирован [2019-03-26 10:34] · скачан: 10 раз
Статус: √ проверено
Размер: 8.22 GB
Как cкачать? Как скачать Мечтай о большем: Свой мир строим сами в 3Д через торрент | qTorrent


>> Регистрируемся здесь <<






Отзывы и комментарии о схеме читаем и пишем здесь: ---> Отзывы и комментарии о схеме

Новые благодарочки в телеграм довольных пользователей:
скриншот   скриншот   скриншот   скриншот   скриншот
    Дорогой пользователь! Огромная просьба, поблагодарите релизера, оцените раздачу и оставьте свои комментарий, если Вы скачали Мечтай о большем: Свой мир строим сами в 3Д через торрент бесплатно! Внесите свою лепту в развитие PiratBit!
    Комментировать посты могут только пользователи прошедшие не сложную регистрацию
    Показать сообщения:    

    Мечтай о большем: Свой мир строим сами в 3Д через торрент
    Скачать бесплатно Мечтай о большем: Свой мир строим сами в 3Д
    Мечтай о большем: Свой мир строим сами в 3Д скачать торрент
    Мечтай о большем: Свой мир строим сами в 3Д смотреть онлайн
    Cкачать фильм Мечтай о большем: Свой мир строим сами в 3Д бесплатно
    Мечтай о большем: Свой мир строим сами в 3Д скачать торрент в хорошем качестве
    Мечтай о большем: Свой мир строим сами в 3Д смотреть онлайн бесплатно в хорошем качестве


    Вы не можете начинать темы
    Вы не можете отвечать на сообщения
    Вы не можете редактировать свои сообщения
    Вы не можете удалять свои сообщения
    Вы не можете голосовать в опросах
    Вы не можете прикреплять файлы к сообщениям
    Вы можете скачивать файлы