Достать ножи: Стеклянная луковица

MVO

Добыча

Дубляж

Уэнсдэй

1 сезон

Тор

Дубляж

13 клиническая

1 сезон

Жестокая ночь

MVO

Одни из нас

1 сезон

Deluxe

pack

Рекомендуем

30

Пиратка

ВАЖНО

ВАЖНО

Ghostwire

Пиратка

jed

RePack

nioh2

RePack

RDR2

RePack

NEED FOR SPEED™ PAYBACK

RePack

скачать торрент

Кинопоиск HD

Острые козырьки 6 сезон

6 сезон

FAR CRY 6

RePack

скачать торрент

Лицензия

скачать торрент

MVO

1

1 сезон

скачать торрент

1 сезон

скачать торрент

Лицензия

  

Наркокурьер / The Mule (Клинт Иствуд) [2018, триллер, драма, криминал, UHD BDRip 2160p] [SDR] Дубляж [Лицензия] + AVO [Михаил Яроцкий]

Наркокурьер через торрент piratbit.org

Размер: 36.44 GB | Добавлен: 3 года 8 мес. назад | Торрент скачан:35 раз
Смотреть онлайн | Скачать | Поддержите нас   

28-03-2019 01:47 Наркокурьер Скачать торрент  

Наркокурьер / The Mule«Nobody Runs Forever»

Год выпуска: 2018
Страна: США
Жанр: триллер, драма, криминал
Продолжительность: 01:56:27
Перевод: Дублированный, авторский
Субтитры: Русские (Forced, full), английские
Режиссер: Клинт Иствуд
В ролях:

Клинт Иствуд (Earl Stone), Брэдли Купер (Agent Colin Bates), Лоренс Фишбёрн (Special Agent in Charge), Майкл Пенья (Agent Treviño), Дайэнн Уист (Mary), Энди Гарсиа (Laton), Элисон Иствуд (Iris), Таисса Фармига (Ginny), Игнасио Серричио (Julio), Лорен Дин (Agent Brown), Виктор Расук (Rico), Мэнни Монтана (Axl)
Описание:
Эрл Стоун - одинокий старик. Его частный бизнес находится на грани разорения, отношения с женой не ладятся, а дети, кажется, давно забыли о его существовании. Неожиданно ему предлагают непыльную, но прибыльную работенку - просто водить машину. Стоун поначалу соглашается и вскоре понимает, что стал наркокурьером мексиканского картеля и попал в поле зрения оперативника Агентства по контролю за оборотом наркотиков.
Рейтинг:

MPAA: R - Лицам до 17 лет обязательно присутствие взрослого
Качество: UHD BDRip 2160p | SDR
Формат: MKV
Видео: HEVC, 38.2 Мбит/с, 3840x1608, 23.976 Кадр/с, 10 бит
Аудио: 48 kHz, AC3, 5.1, 384 Kbps | Дублированный | Лицензия
Аудио: 48 kHz, DTS, 5.1, 1510 Kbps | Авторский Михаил Яроцкий (kyberpunk) | RUS |
Аудио: 48 kHz, AC3, 5.1, 640 Kbps | Авторский Михаил Яроцкий (kyberpunk)| RUS |
Аудио: 48 kHz, DTS-HD Master Audio, 5.1, 3356 Kbps | Оригинал | ENG
Аудио: 48 kHz, AC3, 5.1, 448 Kbps | Оригинал | ENG |
Навигация по главам: есть

Общее
Уникальный идентификатор : 226257638215718865198249138276263308872 (0xAA37A2D4BC7FA78E8E1CCB0FD098AE48)
Полное имя : D:\Мои раздачи\Передел\The.Mule.2018.2160p.UHD.BDRip.x265.10bit.SDR.HEVC.Master5.mkv
Формат : Matroska
Версия формата : Version 4 / Version 2
Размер файла : 36,4 Гбайт
Продолжительность : 1 ч. 56 м.
Общий поток : 44,8 Мбит/сек
Название фильма : The.Mule.2018.2160p.UHD.BDRip.x265.10bit.SDR.HEVC.Master5
Дата кодирования : UTC 2019-05-14 04:12:53
Программа кодирования : mkvmerge v7.9.0 ('Birds') 64bit
Библиотека кодирования : libebml v1.3.1 + libmatroska v1.4.2
Обложка : Yes
Attachments : cover_land.jpg / small_cover.jpg / small_cover_land.jpg / cover.jpg

Видео
Идентификатор : 1
Формат : HEVC
Формат/Информация : High Efficiency Video Coding
Профиль формата : Main 10@L5.1@High
Идентификатор кодека : V_MPEGH/ISO/HEVC
Продолжительность : 1 ч. 56 м.
Битрейт : 38,2 Мбит/сек
Ширина : 3840 пикселей
Высота : 1608 пикселей
Соотношение сторон : 2,40:1
Режим частоты кадров : Постоянный
Частота кадров : 23,976 (24000/1001) кадра/сек
Цветовое пространство : YUV
Субдискретизация насыщенности : 4:2:0
Битовая глубина : 10 бит
Бит/(Пиксели*Кадры) : 0.258
Размер потока : 31,1 Гбайт (85%)
Заголовок : The.Mule.2018.2160p.UHD.BDRip.x265.10bit.SDR.HEVC.Master5
Библиотека кодирования : x265 3.0+1-ed72af837053:[Windows][GCC 8.2.0][64 bit] 10bit
Настройки программы : cpuid=1111039 / frame-threads=16 / numa-pools=16,16 / wpp / no-pmode / no-pme / no-psnr / no-ssim / log-level=2 / input-csp=1 / input-res=3840x1608 / interlace=0 / total-frames=167508 / level-idc=51 / high-tier=1 / uhd-bd=0 / ref=3 / no-allow-non-conformance / repeat-headers / annexb / aud / hrd / info / hash=0 / no-temporal-layers / no-open-gop / min-keyint=1 / keyint=24 / gop-lookahead=0 / bframes=4 / b-adapt=2 / b-pyramid / bframe-bias=0 / rc-lookahead=25 / lookahead-slices=4 / scenecut=40 / radl=0 / no-splice / no-intra-refresh / ctu=64 / min-cu-size=8 / no-rect / no-amp / max-tu-size=32 / tu-inter-depth=1 / tu-intra-depth=1 / limit-tu=0 / rdoq-level=0 / dynamic-rd=0.00 / no-ssim-rd / signhide / no-tskip / nr-intra=0 / nr-inter=0 / no-constrained-intra / strong-intra-smoothing / max-merge=2 / limit-refs=3 / no-limit-modes / me=1 / subme=2 / merange=57 / temporal-mvp / weightp / no-weightb / no-analyze-src-pics / deblock=0:0 / no-sao / no-sao-non-deblock / rd=3 / no-early-skip / rskip / no-fast-intra / no-tskip-fast / no-cu-lossless / no-b-intra / no-splitrd-skip / rdpenalty=0 / psy-rd=2.00 / psy-rdoq=0.00 / no-rd-refine / no-lossless / cbqpoffs=0 / crqpoffs=0 / rc=crf / crf=16.0 / qcomp=0.60 / qpstep=4 / stats-write=0 / stats-read=0 / vbv-maxrate=160000 / vbv-bufsize=160000 / vbv-init=0.9 / crf-max=0.0 / crf-min=0.0 / ipratio=1.40 / pbratio=1.30 / aq-mode=1 / aq-strength=1.00 / cutree / zone-count=0 / no-strict-cbr / qg-size=32 / no-rc-grain / qpmax=69 / qpmin=0 / no-const-vbv / sar=1 / overscan=0 / videoformat=5 / range=0 / colorprim=2 / transfer=2 / colormatrix=2 / chromaloc=0 / display-window=0 / max-cll=0,0 / min-luma=0 / max-luma=1023 / log2-max-poc-lsb=8 / vui-timing-info / vui-hrd-info / slices=1 / opt-qp-pps / opt-ref-list-length-pps / no-multi-pass-opt-rps / scenecut-bias=0.05 / no-opt-cu-delta-qp / no-aq-motion / no-hdr / no-hdr-opt / no-dhdr10-opt / no-idr-recovery-sei / analysis-reuse-level=5 / scale-factor=0 / refine-intra=0 / refine-inter=0 / refine-mv=0 / refine-ctu-distortion=0 / no-limit-sao / ctu-info=0 / no-lowpass-dct / refine-analysis-type=0 / copy-pic=1 / max-ausize-factor=1.0 / no-dynamic-refine / no-single-sei / no-hevc-aq / qp-adaptation-range=1.00
Default : Да
Forced : Нет

Аудио #1
Идентификатор : 2
Формат : AC-3
Формат/Информация : Audio Coding 3
Идентификатор кодека : A_AC3
Продолжительность : 1 ч. 56 м.
Вид битрейта : Постоянный
Битрейт : 640 Кбит/сек
Каналы : 6 каналов
Расположение каналов : Front: L C R, Side: L R, LFE
Частота : 48,0 КГц
Частота кадров : 31,250 кадров/сек (1536 SPF)
Битовая глубина : 16 бит
Метод сжатия : С потерями
Размер потока : 533 Мбайт (1%)
Заголовок : Дубляж License
Язык : Russian
ServiceKind/String : Complete Main
Default : Да
Forced : Да

Аудио #2
Идентификатор : 3
Формат : DTS
Формат/Информация : Digital Theater Systems
Идентификатор кодека : A_DTS
Продолжительность : 1 ч. 56 м.
Вид битрейта : Постоянный
Битрейт : 1509 Кбит/сек
Каналы : 6 каналов
Расположение каналов : Front: L C R, Side: L R, LFE
Частота : 48,0 КГц
Частота кадров : 93,750 кадра/сек (512 SPF)
Битовая глубина : 24 бит
Метод сжатия : С потерями
Размер потока : 1,23 Гбайт (3%)
Заголовок : AVO (kyberpunk)_Яроцкий
Язык : Russian
Default : Нет
Forced : Да

Аудио #3
Идентификатор : 4
Формат : AC-3
Формат/Информация : Audio Coding 3
Идентификатор кодека : A_AC3
Продолжительность : 1 ч. 56 м.
Вид битрейта : Постоянный
Битрейт : 640 Кбит/сек
Каналы : 6 каналов
Расположение каналов : Front: L C R, Side: L R, LFE
Частота : 48,0 КГц
Частота кадров : 31,250 кадров/сек (1536 SPF)
Битовая глубина : 16 бит
Метод сжатия : С потерями
Размер потока : 533 Мбайт (1%)
Заголовок : AVO (kyberpunk)_Яроцкий
Язык : Russian
ServiceKind/String : Complete Main
Default : Нет
Forced : Нет

Аудио #4
Идентификатор : 5
Формат : DTS
Формат/Информация : Digital Theater Systems
Профиль формата : MA / Core
Идентификатор кодека : A_DTS
Продолжительность : 1 ч. 56 м.
Вид битрейта : Переменный / Постоянный
Битрейт : 3356 Кбит/сек / 1509 Кбит/сек
Каналы : 6 каналов
Расположение каналов : Front: L C R, Side: L R, LFE
Частота : 48,0 КГц
Частота кадров : 93,750 кадра/сек (512 SPF)
Битовая глубина : 24 бит
Метод сжатия : Без потерь / Lossy
Размер потока : 2,73 Гбайт (7%)
Заголовок : Original
Язык : English
Default : Нет
Forced : Нет

Аудио #5
Идентификатор : 6
Формат : AC-3
Формат/Информация : Audio Coding 3
Идентификатор кодека : A_AC3
Продолжительность : 1 ч. 56 м.
Вид битрейта : Постоянный
Битрейт : 448 Кбит/сек
Каналы : 6 каналов
Расположение каналов : Front: L C R, Side: L R, LFE
Частота : 48,0 КГц
Частота кадров : 31,250 кадров/сек (1536 SPF)
Битовая глубина : 16 бит
Метод сжатия : С потерями
Размер потока : 373 Мбайт (1%)
Язык : English
ServiceKind/String : Complete Main
Default : Нет
Forced : Нет

Текст #1
Идентификатор : 7
Формат : UTF-8
Идентификатор кодека : S_TEXT/UTF8
Идентификатор кодека/Информация : UTF-8 Plain Text
Продолжительность : 1 ч. 55 м.
Битрейт : 5 бит/сек
ElementCount : 94
Размер потока : 4,37 Кбайт (0%)
Заголовок : Forced
Язык : Russian
Default : Да
Forced : Нет

Текст #2
Идентификатор : 8
Формат : UTF-8
Идентификатор кодека : S_TEXT/UTF8
Идентификатор кодека/Информация : UTF-8 Plain Text
Продолжительность : 1 ч. 55 м.
Битрейт : 91 бит/сек
ElementCount : 1556
Размер потока : 77,4 Кбайт (0%)
Заголовок : Full
Язык : Russian
Default : Нет
Forced : Нет

Текст #3
Идентификатор : 9
Формат : UTF-8
Идентификатор кодека : S_TEXT/UTF8
Идентификатор кодека/Информация : UTF-8 Plain Text
Продолжительность : 1 ч. 46 м.
Битрейт : 59 бит/сек
ElementCount : 1517
Размер потока : 46,7 Кбайт (0%)
Язык : English
Default : Нет
Forced : Нет

Меню
00:00:00.000 : en:00:00:00.000
00:06:45.822 : en:00:06:45.822
00:15:27.885 : en:00:15:27.885
00:23:24.236 : en:00:23:24.236
00:32:22.482 : en:00:32:22.482
00:40:29.886 : en:00:40:29.886
00:48:20.564 : en:00:48:20.564
00:57:55.347 : en:00:57:55.347
01:07:17.408 : en:01:07:17.408
01:16:17.364 : en:01:16:17.364
01:23:18.785 : en:01:23:18.785
01:32:20.160 : en:01:32:20.160
01:39:12.947 : en:01:39:12.947
01:46:17.580 : en:01:46:17.580
01:48:52.443 : en:01:48:52.443



Скачать Наркокурьер через торрент https://a.radikal.ru/a00/1904/06/49b2d222fa61.png Скачать, смотреть онлайн Наркокурьер бесплантно в хорошем качестве Описание: Эрл Стоун - одинокий старик. Его частный бизнес находится на грани разорения, отношения с женой не ладятся, а дети, кажется, ... 9.6 10 7
Торрент: Зарегистрирован [2019-05-14 08:41] · скачан: 35 раз
Статус: √ проверено
Размер: 36.44 GB
Как cкачать? Как скачать Наркокурьер через торрент | UTorrent

% Раздел Тема Автор DL S | L
Фильмы 2018 [DVDrip, WEB-DLRip, HDrip] (DUB, MVO) [ 2.16 GB ] Наркокурьер / The Mule | HDRezka Studio | BDRip-AVC Enigma2010 Скачать
1 | 0
Фильмы [HD 720p, 1080p] (Хороший звук DUB, MVO) [ 13.41 GB ] Наркокурьер / The Mule | Лицензия | 1080p bober100 Скачать
1 | 0
Фильмы 2018 [DVDrip, WEB-DLRip, HDrip] (DUB, MVO) [ 2.18 GB ] Наркокурьер / The Mule | Лицензия | BDRip Twi7ter Скачать
3 | 0
Фильмы 2018 [DVDrip, WEB-DLRip, HDrip] (DUB, MVO) [ 710 MB ] Наркокурьер / The Mule | Дубляж "BD EUR" | HDRip, Дубляж "BD EUR" coc900 Скачать
1 | 0
Фильмы 2018 [DVDrip, WEB-DLRip, HDrip] (DUB, MVO) [ 1.46 GB ] Наркокурьер / The Mule | Лицензия | BDRip Twi7ter Скачать
3 | 0
Фильмы [HD 720p, 1080p] (Хороший звук DUB, MVO) [ 6.43 GB ] Наркокурьер / The Mule | Лицензия | 720p bober100 Скачать
2 | 0
Ultra HD (UHD: 2K, 4K, 8K) [ 54.25 GB ] Наркокурьер / The Mule | Лицензия | 2160p sheker187 Скачать
1 | 0



Последний раз редактировалось: sheker187 (2019-05-14 08:41), всего редактировалось 1 раз

28-11-2019 20:33  


Отключить вcю реклaмy на сайте, в т.ч. и в плеере онлайн просмотра!

25-04-2019 12:34 Наркокурьер Скачать торрент  

Релиз обновлён - добавлена лицензия iTunes
Желающие, скачайте заново торрент-файл.
Приятного просмотра!



14-05-2019 08:42 Наркокурьер Скачать торрент  

Релиз обновлён - Замена на лицензию.
Желающие, скачайте заново торрент-файл.
Приятного просмотра!



    Дорогой пользователь! Огромная просьба, поблагодарите релизера, оцените раздачу и оставьте свои комментарий, если Вы скачали Наркокурьер через торрент бесплатно!!
    Комментировать посты могут только пользователи прошедшие не сложную регистрацию
    Показать сообщения:    


    Наркокурьер через торрент
    Скачать бесплатно Наркокурьер
    Наркокурьер скачать торрент
    Наркокурьер смотреть онлайн
    Cкачать фильм Наркокурьер бесплатно
    Наркокурьер скачать торрент в хорошем качестве
    Наркокурьер смотреть онлайн бесплатно в хорошем качестве
    Вы не можете начинать темы
    Вы не можете отвечать на сообщения
    Вы не можете редактировать свои сообщения
    Вы не можете удалять свои сообщения
    Вы не можете голосовать в опросах
    Вы не можете прикреплять файлы к сообщениям
    Вы можете скачивать файлы
    Наркокурьер / The Mule [2018, триллер, драма, криминал, UHD BDRip 2160p] [SDR] Дубляж [Лицензия] + AVO [Михаил Яроцкий] смотреть онлайн, скачать торрент picoco.icu