Всегда рабочее зеркало без VPN и Proxy просто перед .vidak.icu напиши любое слово или цифру, Пример http://ftj.vidak.icu

>

7.4

iTunes

7.4

2 сезон

6.6

iTunes

1

7.4

2 сезон

7.2

iTunes

6.0

MVO

13

6.1

iTunes

8.3

Пиратка

30

ULTIMATE

pack

9.9

Лицензия

ВАЖНО

ИГРА 18+

pack

7.3

RePack

MK11

7.7

RePack

jed

7.8

RePack

fifa19

8.5

RePack

RDR2

RePack

NEED FOR SPEED™ PAYBACK

1 сезон

9 сезон

Бесстыжие 9 сезон

Все сериалы

все сериалы на PB.wtf

RePack

FAR CRY 5

Anonymous, добрый вечер, мы катастрофически не успеваем собрать деньги на оплату серверов, помогите нам пожалуйста 5,10,15р., для нас важна любая помощь . В качестве благодарности мы отключим Вам всю рекламу на сайте (укажите свой ник в строку Ваше имя)!

×
  
Magnet ссылка

Три богатыря и Наследница престола (Константин Бронзит) [2018, мультфильм, приключения, семейный, BDRip 720p, 60 fps] [iTunes] piratbit.org

Три богатыря и Наследница престола через торрент piratbit.org

Раздают: 1 [ 0 KB/s ]
Размер: 5.87 GB | Добавлен: 2 года 9 мес. назад | Торрент скачан:614 раз
Смотреть онлайн Три богатыря и Наследница престола | Скачать    Ребята, помогите собрать деньги на оплату серверов!!!

29-03-2019 05:44 Три богатыря и Наследница престола Скачать торрент  

Три богатыря и Наследница престола«Забавы ради»

Год выпуска: 2018
Страна: Россия
Жанр: мультфильм, приключения, семейный
Продолжительность: 01:21:10
Перевод: Не требуется | iTunes
Субтитры: отсутствуют
Режиссер: Константин Бронзит
В ролях:

Сергей Маковецкий (князь, озвучка), Дмитрий Быковский-Ромашов (Илья, озвучка), Валерий Соловьев (Добрыня, озвучка), Олег Куликович (Алеша, озвучка), Анатолий Петров (Антипка, озвучка), Екатерина Гороховская (Забава, озвучка), Юрий Тарасов (Елисей, озвучка), Михаил Черняк (читает текст, озвучка), Дмитрий Высоцкий (Юлий, озвучка), Александр Боярский (Василевс, озвучка), Константин Бронзит (Леонид, сын Василевса, озвучка), Максим Сергеев (Соловей, озвучка)
Описание:
Князь Киевский решил назначить наследника престола, только вот незадача - кто это может быть? Родственник, друг семьи или может быть, заморская принцесса? Недолго думая, Князь-батюшка выбирает почти принцессу, а главное родственницу - племянницу Забаву. Нынче она вместе со своим мужем Елисеем (помните верного ученика Добрыни Никитича?) получает образование в далеком Царьграде, где правит коварный Василевс. Чтобы вернуть наследницу на родные просторы за тридевять земель в спешном порядке отправляются три богатыря и, конечно же, главный придворный конь Юлий.
Рейтинг:

Качество: BDRip 720p | 60 fps
Формат: MKV
Видео: AVC | 1280 x 720 | 60.000 fps | 10.0 Мбит/сек
Аудио: 48 kHz, AC3 Dolby Digital, 3/2 (L,C,R,l,r) + LFE ch, ~384 kbps avg
Навигация по главам: есть
General
Unique ID : 165691417092782198517296780752742054494 (0x7CA701946712C7658BADA0065A10FA5E)
Complete name : D:\2018 Три богатыря и Наследница престола BDRip 720p 60 fps.mkv
Format : Matroska
Format version : Version 4 / Version 2
File size : 5.87 GiB
Duration : 1h 21mn
Overall bit rate : 10.4 Mbps
Movie name : Три богатыря и Наследница престола
Encoded date : UTC 2019-02-07 19:49:10
Writing application : mkvmerge v22.0.0 ('At The End Of The World') 64-bit
Writing library : libebml v1.3.5 + libmatroska v1.4.8
DURATION : 01:21:10.208000000
NUMBER_OF_FRAMES : 152194
NUMBER_OF_BYTES : 233769984
_STATISTICS_WRITING_APP : mkvmerge v22.0.0 ('At The End Of The World') 64-bit
_STATISTICS_WRITING_DATE_UTC : 2019-02-07 19:49:10
_STATISTICS_TAGS : BPS DURATION NUMBER_OF_FRAMES NUMBER_OF_BYTES
Attachment : Yes
Video #1
ID : 1
Format : AVC
Format/Info : Advanced Video Codec
Format profile : High@L4.1
Format settings, CABAC : Yes
Format settings, ReFrames : 9 frames
Codec ID : V_MPEG4/ISO/AVC
Duration : 1h 21mn
Bit rate : 10 000 Kbps
Width : 1 280 pixels
Height : 720 pixels
Display aspect ratio : 16:9
Frame rate : 60.000 fps
Color space : YUV
Chroma subsampling : 4:2:0
Bit depth : 8 bits
Scan type : Progressive
Bits/(Pixel*Frame) : 0.181
Stream size : 5.54 GiB (94%)
Writing library : x264 core 146 r2538 121396c
Encoding settings : cabac=1 / ref=9 / deblock=1:1:1 / analyse=0x3:0x113 / me=umh / subme=9 / psy=1 / psy_rd=0.40:0.00 / mixed_ref=1 / me_range=32 / chroma_me=1 / trellis=2 / 8x8dct=1 / cqm=0 / deadzone=21,11 / fast_pskip=1 / chroma_qp_offset=-2 / threads=12 / lookahead_threads=2 / sliced_threads=0 / nr=0 / decimate=1 / interlaced=0 / bluray_compat=0 / constrained_intra=0 / bframes=5 / b_pyramid=2 / b_adapt=2 / b_bias=0 / direct=3 / weightb=1 / open_gop=0 / weightp=2 / keyint=600 / keyint_min=60 / scenecut=40 / intra_refresh=0 / rc_lookahead=60 / rc=2pass / mbtree=1 / bitrate=10000 / ratetol=1.0 / qcomp=0.60 / qpmin=0 / qpmax=69 / qpstep=4 / cplxblur=20.0 / qblur=0.5 / vbv_maxrate=50000 / vbv_bufsize=50000 / nal_hrd=none / filler=0 / ip_ratio=1.40 / aq=1:0.60
Language : Russian
Default : Yes
Forced : No
DURATION : 01:21:10.134000000
NUMBER_OF_FRAMES : 292208
NUMBER_OF_BYTES : 6070926132
_STATISTICS_WRITING_APP : mkvmerge v22.0.0 ('At The End Of The World') 64-bit
_STATISTICS_WRITING_DATE_UTC : 2019-02-07 19:49:10
_STATISTICS_TAGS : BPS DURATION NUMBER_OF_FRAMES NUMBER_OF_BYTES
Audio #2
ID : 2
Format : AC-3
Format/Info : Audio Coding 3
Mode extension : CM (complete main)
Format settings, Endianness : Big
Codec ID : A_AC3
Duration : 1h 21mn
Bit rate mode : Constant
Bit rate : 384 Kbps
Channel(s) : 6 channels
Channel positions : Front: L C R, Side: L R, LFE
Sampling rate : 48.0 KHz
Bit depth : 16 bits
Compression mode : Lossy
Stream size : 223 MiB (4%)
Title : [ORIGINAL] DD 5.1 @ 384 kbps (iTunes)
Language : Russian
Default : Yes
Forced : No
Menu
00:00:00.000 : en:Глава 1
00:06:40.600 : en:Глава 2
00:13:04.080 : en:Глава 3
00:19:25.120 : en:Глава 4
00:27:00.920 : en:Глава 5
00:33:24.640 : en:Глава 6
00:39:32.680 : en:Глава 7
00:46:08.000 : en:Глава 8
00:53:50.880 : en:Глава 9
01:02:06.080 : en:Глава 10
01:07:50.520 : en:Глава 11
01:12:03.960 : en:Глава 12
piratbit.org



Скачать Три богатыря и Наследница престола через торрент https://b.radikal.ru/b07/1903/30/b9c9d682b58d.png Скачать, смотреть онлайн Три богатыря и Наследница престола бесплантно в хорошем качестве Описание: Князь Киевский решил назначить наследника престола, только вот незадача - кто это может быть? Родственник, друг семьи или может ... 8.7 10 19
Info! Золотая раздача, скачанное не засчитывается.
Торрент: Зарегистрирован [2019-03-29 05:44] · скачан: 614 раз
Статус: √ проверено
Размер: 5.87 GB
Как cкачать? Как скачать Три богатыря и Наследница престола через торрент | UTorrent

% Раздел Тема Автор DL S | L
Наши мультфильмы [ 1.17 GB ] Три богатыря и Наследница престола [2018 мультфильм WEB-DLRip-AVC] - ExKinoRay Enigma2010 Скачать
5 | 0
Наши Мультфильмы (HD, WEB-DL 720p, 1080p) [ 2.57 GB ] Три богатыря и Наследница престола [2018 мультфильм WEB-DL 720p] bober100 Скачать
1 | 0
Наши мультфильмы [ 745 MB ] Три богатыря и Наследница престола [2018 мультфильм WEB-DLRip] bober100 Скачать
1 | 0
Наши мультфильмы [ 700 MB ] Три богатыря и Наследница престола [2018 мультфильм WEB-DLRip-AVC] Skandar2019 Скачать
1 | 0
Наши Мультфильмы (HD, WEB-DL 720p, 1080p) [ 3.12 GB ] Три богатыря и Наследница престола [2018 мультфильм WEB-DL 1080p] -Lexx- Скачать
1 | 0
Наши мультфильмы [ 1.46 GB ] Три богатыря и Наследница престола [2018 мультфильм WEB-DLRip] Skandar2019 Скачать
1 | 0

28-11-2019 20:33  

Отключить всю рекламу на сайте

29-03-2019 05:55 Три богатыря и Наследница престола Скачать торрент  

Лучше бы пресет сделал Placebo с меньшим битреем, чем me=umh / subme=9piratbit.org



31-03-2019 05:22 Три богатыря и Наследница престола Скачать торрент  

Что есть в мультфильме:
Обсирание западных стран и превознесение Руси.
Показан негативный пример общения мужчины и женщины - Забава и Елисей, где женщина унижает своего мужа.

Обычная пропагандоская шляпа. Даёт детям то, что их родители получают от Киселёва и в целом от ТВ - промывка мозгов в нужном русле для существующего в РФ режима.

Крайне не рекомендуется для просмотра детьми.piratbit.org



10-11-2019 16:42 Три богатыря и Наследница престола Скачать торрент  

очень дешевый и посредственный мульт. Такое ощущение, что его на флеш создавали.piratbit.org



    Дорогой пользователь! Огромная просьба, поблагодарите релизера, оцените раздачу и оставьте свои комментарий, если Вы скачали Три богатыря и Наследница престола через торрент бесплатно!
    Комментировать посты могут только пользователи прошедшие не сложную регистрацию
    Показать сообщения:    

    Три богатыря и Наследница престола через торрент
    Скачать бесплатно Три богатыря и Наследница престола
    Три богатыря и Наследница престола скачать торрент
    Три богатыря и Наследница престола смотреть онлайн
    Cкачать фильм Три богатыря и Наследница престола бесплатно
    Три богатыря и Наследница престола скачать торрент в хорошем качестве
    Три богатыря и Наследница престола смотреть онлайн бесплатно в хорошем качестве


    Вы не можете начинать темы
    Вы не можете отвечать на сообщения
    Вы не можете редактировать свои сообщения
    Вы не можете удалять свои сообщения
    Вы не можете голосовать в опросах
    Вы не можете прикреплять файлы к сообщениям
    Вы можете скачивать файлы