Ссылка на приватное зеркало всего за 1$. Внимание количество ограничено!!!

iTunes

iTunes

iTunes

1

iTunes

iTunes

iTunes

iTunes

iTunes

30
pack

$ от Little Big

ВАЖНО

!!Акция!!

Alien_RageХит недели

RePack

Resident Evil 21

ИГРА 18+

pack

RePack

jed

!!Акция!!

Alien_Rage

RePack

fifa19

RePack

Assassins Creed: Odyssey

RePack

NEED FOR SPEED™ PAYBACK

4 сезон

9 сезон

Бесстыжие 9 сезон

Все сериалы

все сериалы на PB.wtf

RePack

FAR CRY 5
  

В пустыне смерти / Into the Badlands / Сезон: 3 / Серии: 1-16 из 16 (Дэвид Добкин) [2018-2019, боевик, приключения, WEB-DL 1080p] [MVO] (LostFilm) piratbit.org

В пустыне смерти через торрент piratbit.org

Размер: 53.28 GB | Добавлен: 1 год 2 мес. назад | Торрент скачан:21 раз
Скачать  

29-03-2019 11:27 В пустыне смерти Скачать торрент  


Год выпуска: 2018-2019
Страна: США
Жанр: Боевик, драма, приключения.
Продолжительность: 00:42:00
Перевод : Профессиональный (многоголосый закадровый) LostFilm
Субтитры: Русские, английские

Режиссёр: Дэвид Добкин

В ролях: Эмили Бичем, Сара Болгер, Орла Брэйди, Мартон Чокаш, Элли Иоаннидес, Арамис Найт, Мадлен Манток, Майкл Сил, Оливер Старк, Дэниэл Ву и др.
Описание:

Приключенческий боевик о двух друзьях. В пустыне смерти, какие испытания предстоит пройти главным героям на пути просвещения. Ради обретения высшей мудрости мастер боевых искусств Санни и его юный напарник решают пройти через неизведанные земли. Они знают, что там их будут встречать враждебно, но ради высшей цели главные герои готовы вынести всё. В основу сюжета сериала был положен китайский роман под названием «Путешествие на Запад». Во время путешествия Санни покажет в полной мере своё мастерство, а его юный друг сможет многому научиться, и владению собственным телом, и контролю над собственным духом.

rating

Работа с звуком itunestv, сборка zgurvas
Качество: WEB-DL 1080p
Формат: MKV
Видео кодек: AVC
Аудио кодек: E-AC3
Видео: MPEG-4 AVC, ~ 8984 Кбит/с, 1920x1080, 23.976 fps
Аудио: E-AC3, 48 kHz, 6 ch, 640 kbps [LostFilm]
Аудио: E-AC3, 48 kHz, 6 ch, 640 kbps [ENG]
General
Unique ID : 117107933256207264995681492197598217197 (0x581A2AE3CAF89B3631163D22A0B6C3ED)
Complete name : E:\Into.the.Badlands.S03E01.Enter.the.Phoenix (Season 03) 1080\Into.the.Badlands.S03E01.Enter.the.Phoenix.1080p.WEB-DL.Rus.Eng.LostFilm.mkv
Format : Matroska
Format version : Version 4 / Version 2
File size : 3.11 GiB
Duration : 42 min 34 s
Overall bit rate mode : Variable
Overall bit rate : 10.5 Mb/s
Movie name : Появление феникса
Encoded date : UTC 2018-04-29 14:39:16
Writing application : mkvmerge v22.0.0 ('At The End Of The World') 32-bit
Writing library : libebml v1.3.5 + libmatroska v1.4.8
Cover : Yes
Attachments : cover.into.the.badlands.s03.jpg

Video
ID : 1
Format : AVC
Format/Info : Advanced Video Codec
Format profile : High@L4
Format settings : CABAC / 4 Ref Frames
Format settings, CABAC : Yes
Format settings, RefFrames : 4 frames
Codec ID : V_MPEG4/ISO/AVC
Duration : 42 min 34 s
Bit rate mode : Variable
Bit rate : 8 985 kb/s
Maximum bit rate : 15.0 Mb/s
Width : 1 920 pixels
Height : 1 080 pixels
Display aspect ratio : 16:9
Frame rate mode : Constant
Frame rate : 23.976 (24000/1001) FPS
Color space : YUV
Chroma subsampling : 4:2:0
Bit depth : 8 bits
Scan type : Progressive
Bits/(Pixel*Frame) : 0.181
Stream size : 2.67 GiB (86%)
Default : Yes
Forced : No
Color range : Limited
Color primaries : BT.709
Transfer characteristics : BT.709
Matrix coefficients : BT.709

Audio #1
ID : 2
Format : E-AC-3
Format/Info : Enhanced Audio Coding 3
Format settings, Endianness : Big
Codec ID : A_EAC3
Duration : 42 min 34 s
Bit rate mode : Constant
Bit rate : 640 kb/s
Channel(s) : 6 channels
Channel positions : Front: L C R, Side: L R, LFE
Sampling rate : 48.0 kHz
Frame rate : 187.500 FPS (256 SPF)
Compression mode : Lossy
Stream size : 195 MiB (6%)
Title : E-AC3 5.1 @ 640 kbps - MVO, LostFilm
Language : Russian
Service kind : Complete Main
Default : Yes
Forced : No

Audio #2
ID : 3
Format : E-AC-3
Format/Info : Enhanced Audio Coding 3
Format settings, Endianness : Big
Codec ID : A_EAC3
Duration : 42 min 34 s
Bit rate mode : Constant
Bit rate : 640 kb/s
Channel(s) : 6 channels
Channel positions : Front: L C R, Side: L R, LFE
Sampling rate : 48.0 kHz
Frame rate : 187.500 FPS (256 SPF)
Compression mode : Lossy
Stream size : 195 MiB (6%)
Title : E-AC3 5.1 @ 640 kbps - Original
Language : English
Service kind : Complete Main
Default : No
Forced : No

Text #1
ID : 4
Format : UTF-8
Codec ID : S_TEXT/UTF8
Codec ID/Info : UTF-8 Plain Text
Title : Full
Language : Russian
Default : No
Forced : No

Text #2
ID : 5
Format : UTF-8
Codec ID : S_TEXT/UTF8
Codec ID/Info : UTF-8 Plain Text
Title : Full
Language : English
Default : No
Forced : No

Text #3
ID : 6
Format : UTF-8
Codec ID : S_TEXT/UTF8
Codec ID/Info : UTF-8 Plain Text
Title : Full SDH
Language : English
Default : No
Forced : No
скриншот  скриншот  скриншот  
Внимание! Раздача ведётся путём добавления новых серий; при каждом добавлении создётся новый торрент. Чтобы начать докачку новой серии, пользователям необходимо сделать следующее:Остановить скачивание.
Удалить старый торрент у себя из клиента (старые серии удалять не надо).
Скачать новый торрент и запустить его у себя в клиенте вместо старого, при этом указать клиенту путь в старую папку куда и должно происходить скачивание новых серий.Ваш клиент при этом должен произвести хеширование (проверку) старой папки (если не производит сам - помогите ему сделать это), и будет докачивать только те серии которых у вас ещё нет. Старые серии при этом не удаляются, а продолжают раздаваться!
Eсли вы уже удалили старые серии, то предотвратить повторную закачку старых серий можно, отжав галочку в соответсвующих местах при запуске нового торрента. По возможности, желательно не удалять старые серии как можно дольше чтобы релизёр не столько продолжал раздавать старые серии, а смог сконцентрироваться на новых.
piratbit.org



Скачать В пустыне смерти через торрент https://i110.fastpic.ru/big/2019/0329/e0/d32b800beade985bf97775a63398f1e0.jpg Скачать фильм В пустыне смерти через торрент бесплантно в хорошем качестве Описание:Приключенческий боевик о двух друзьях. В пустыне смерти, какие испытания предстоит пройти главным героям на пути просвещения. Ради ... 10 10 2
Info! Золотая раздача, скачанное не засчитывается.
Торрент: Зарегистрирован [2019-05-11 05:51] · скачан: 21 раз
Статус: √ проверено
Размер: 53.28 GB
Как cкачать? Как скачать В пустыне смерти через торрент | qTorrent

% Раздел Тема Автор DL S | L
Зарубежные сериалы [ 8.3 GB ] В пустыне смерти / Into the Badlands / Сезон: 3 / Серии: 1-16 из 16 [2018-2019 WEB-DLRip] [MVO] killermax2013 Скачать
1 | 0
Зарубежные сериалы [ 25.76 GB ] В пустыне смерти / Into the Badlands / Сезон: 3 / Серии: 1-16 из 16 [2019 WEB-DL 720p] [MVO] killermax2013 Скачать
1 | 0
Зарубежные сериалы [ 55.19 GB ] В пустыне смерти / Into the Badlands / Сезон: 3 / Серии: 1-16 из 16 [2018 WEBRip 1080p] MVO [BaibaKo] bober100 Скачать
1 | 0
Фильмы с украинским озвучиванием [ 50.96 GB ] В пустыне смерти / Into the Badlands / Сезон: 3 / Серии: 1-16 из 16 [2018-2019 WEB-DL 1080p] [Ukr MVO] killermax2013 Скачать
1 | 0
Зарубежные сериалы [ 17.74 GB ] В пустыне смерти / Into the Badlands / Сезон: 3 / Серии: 1-12 из 16 [2018 WEB-DL 720p] MVO [NewStudio] bober100 Скачать
1 | 0
Зарубежные сериалы [ 5.03 GB ] В пустыне смерти / Into the Badlands / Сезон: 3 / Серии: 1-10 из 16 [2018 WEB-DLRip] MVO [Newstudio] bober100 Скачать
1 | 0
Зарубежные сериалы [ 22.71 GB ] В пустыне смерти / Into the Badlands / Сезон: 3 / Серии: 1-7 из 16 [2018 WEB-DL 1080p] [MVO] killermax2013 Скачать
1 | 0

28-11-2019 20:33  

Отключить всю рекламу на сайте

    Дорогой пользователь! Огромная просьба, поблагодарите релизера, оцените раздачу и оставьте свои комментарий, если Вы скачали В пустыне смерти через торрент бесплатно! Внесите свою лепту в развитие PiratBit!
    Комментировать посты могут только пользователи прошедшие не сложную регистрацию
    Показать сообщения:    

    В пустыне смерти через торрент
    Скачать бесплатно В пустыне смерти
    В пустыне смерти скачать торрент
    В пустыне смерти смотреть онлайн
    Cкачать фильм В пустыне смерти бесплатно
    В пустыне смерти скачать торрент в хорошем качестве
    В пустыне смерти смотреть онлайн бесплатно в хорошем качестве


    Вы не можете начинать темы
    Вы не можете отвечать на сообщения
    Вы не можете редактировать свои сообщения
    Вы не можете удалять свои сообщения
    Вы не можете голосовать в опросах
    Вы не можете прикреплять файлы к сообщениям
    Вы можете скачивать файлы