Доктор Стрэндж

Лицензия

Добыча

Дубляж

Дом дракона

1 сезон

Тор

Дубляж

В эфире

Дубляж

Там, где раки поют

MVO

Властелин колец

1 сезон

Ultimate

pack

Рекомендуем

30

Пиратка

ВАЖНО

ВАЖНО

Ghostwire

Пиратка

jed

RePack

nioh2

RePack

RDR2

RePack

NEED FOR SPEED™ PAYBACK

RePack

скачать торрент

Кинопоиск HD

Острые козырьки 6 сезон

6 сезон

FAR CRY 6

RePack

скачать торрент

Лицензия

скачать торрент

MVO

1

1 сезон

скачать торрент

1 сезон

скачать торрент

Лицензия

  

В погоне за Бонни и Клайдом / Разбойники с большой дороги / The Highwaymen (Джон Ли Хэнкок) [2019 г., триллер, драма, криминал, детектив, WEB-DLRip, Профессиональный (многоголосый)]

В погоне за Бонни и Клайдом через торрент piratbit.org

Раздают: 1 [ 0 KB/s ]
Размер: 1.47 GB | Добавлен: 3 года 7 мес. назад | Торрент скачан:1219 раз
Смотреть онлайн | Скачать   

29-03-2019 16:31 В погоне за Бонни и Клайдом Скачать торрент  

В погоне за Бонни и Клайдом / Разбойники с большой дороги / The Highwaymen
Год выпуска: 2019
Страна: США
Жанр: триллер, драма, криминал, детектив
Продолжительность: 02:12:16
Перевод: Профессиональный (многоголосый)
Субтитры: Русские (форсированные) (внешние *.srt)

Режиссер: Джон Ли Хэнкок

Премьера в мире: 10 марта 2019,

rating

В ролях: Кевин Костнер, Вуди Харрельсон, Ким Диккенс, Эмили Бробст, Кэти Бейтс, У. Эрл Браун, Джон Кэрролл Линч, Томас Манн, Эдвард Боссерт, Дэвид Фурр

Описание: В 1930-е годы техасский рейнджер Фрэнк Хеймер получает задание поймать и обезвредить двух опасных грабителей банков. Вместе с напарником Мэнни Голтом он возглавляет охоту за парочкой молодых неуловимых преступников, которых зовут Бонни и Клайд.

Качество: WEB-DLRip
Формат: AVI
Видео кодек: XviD
Аудио кодек: AC3
Видео: 720x304 (2.37:1), 24.000 fps, XviD build 67 ~1388 kbps avg, 0.26 bit/pixel
Аудио#1: 48 kHz, AC3 Dolby Digital, 2/0 (L,R) ch, ~192 kbps avg
Релиз от: EniaHD

Полное имя : D:\The_Highwaymen_2019_WEB-DLRip_by_Dalemake.avi
Формат : AVI
Формат/Информация : Audio Video Interleave
Размер файла : 1,47 Гбайт
Продолжительность : 2 ч. 12 м.
Общий поток : 1590 Кбит/сек
Программа кодирования : VirtualDubMod 1.5.10.3 | www.virtualdub-fr.org || (build 2550/release)
Библиотека кодирования : VirtualDubMod build 2550/release

Видео
Идентификатор : 0
Формат : MPEG-4 Visual
Профиль формата : Advanced Simple@L5
Параметр BVOP формата : 1
Параметр QPel формата : Нет
Параметр GMC формата : Без точки перехода
Параметр матрицы формата : Выборочная
Идентификатор кодека : XVID
Идентификатор кодека/Подсказка : XviD
Продолжительность : 2 ч. 12 м.
Битрейт : 1389 Кбит/сек
Ширина : 720 пикселей
Высота : 304 пикселя
Соотношение сторон : 2,35:1
Частота кадров : 24,000 кадра/сек
Цветовое пространство : YUV
Субдискретизация насыщенности : 4:2:0
Битовая глубина : 8 бит
Тип развёртки : Прогрессивная
Метод сжатия : С потерями
Бит/(Пиксели*Кадры) : 0.264
Размер потока : 1,28 Гбайт (87%)
Библиотека кодирования : XviD 67

Аудио
Идентификатор : 1
Формат : AC-3
Формат/Информация : Audio Coding 3
Расширение режима : CM (complete main)
Параметр Endianness формата : Big
Идентификатор кодека : 2000
Продолжительность : 2 ч. 12 м.
Вид битрейта : Постоянный
Битрейт : 192 Кбит/сек
Каналы : 2 канала
Расположение каналов : Front: L R
Частота : 48,0 КГц
Метод сжатия : С потерями
Размер потока : 182 Мбайт (12%)
Выравнивание : Разделение по промежуткам
Продолжительность промежутка : 42 мс. (1,00 видеокадр)
Время предзагрузки промежутка : 500 мс.




Скачать В погоне за Бонни и Клайдом через торрент http://images.vfl.ru/ii/1553875183/57b5bea2/25973767.jpg Скачать, смотреть онлайн В погоне за Бонни и Клайдом бесплантно в хорошем качестве Описание: В 1930-е годы техасский рейнджер Фрэнк Хеймер получает задание поймать и обезвредить двух опасных грабителей банков. Вместе с ... 8.8 10 19
Торрент: Зарегистрирован [2019-03-29 16:31] · скачан: 1 219 раз
Статус: √ проверено
Размер: 1.47 GB
Как cкачать? Как скачать В погоне за Бонни и Клайдом через торрент | UTorrent

% Раздел Тема Автор DL S | L
# Фильмы 2019-2020 [DVDrip, WEB-DLRip, HDrip] (DUB, MVO) [ 2.18 GB ] В погоне за Бонни и Клайдом / Разбойники с большой дороги / The Highwaymen | DUB | HDRip bober100 Скачать
1 | 0
Фильмы (HD 720p, 1080p) (48-60 fps) [ 3.83 GB ] В погоне за Бонни и Клайдом / The Highwaymen | | DLRip - HEVC 1080p 10bit 60 FPS, DVO dd2d3 Скачать
1 | 0
# Фильмы [HD 720p, 1080p] (Хороший звук DUB, MVO) [ 10.42 GB ] В погоне за Бонни и Клайдом / Разбойники с большой дороги / The Highwaymen | DUB | 1080p bober100 Скачать
1 | 0
Ultra HD (UHD: 2K, 4K, 8K) [ 18.03 GB ] В погоне за Бонни и Клайдом / Разбойники с большой дороги / The Highwaymen | DUB + DVO + AVO | 2160p sheker187 Скачать
1 | 0
Ultra HD (UHD: 2K, 4K, 8K) [ 24.66 GB ] В погоне за Бонни и Клайдом / Разбойники с большой дороги / The Highwaymen | DUB | 2160p sheker187 Скачать
1 | 0
Фильмы 2019-2020 [DVDrip, WEB-DLRip, HDrip] (DUB, MVO) [ 2.17 GB ] В погоне за Бонни и Клайдом / Разбойники с большой дороги / The Highwaymen | DUB | DLRip-AVC bober100 Скачать
1 | 0
# Фильмы [HD 720p, 1080p] (Хороший звук DUB, MVO) [ 6.27 GB ] В погоне за Бонни и Клайдом / Разбойники с большой дороги / The Highwaymen | DUB | 720p bober100 Скачать
1 | 0

28-11-2019 20:33  


Отключить вcю реклaмy на сайте, в т.ч. и в плеере онлайн просмотра!

30-03-2019 22:17 В погоне за Бонни и Клайдом Скачать торрент  

кевин и вуди-молодцы.сам фильм не зацепил.



    Дорогой пользователь! Огромная просьба, поблагодарите релизера, оцените раздачу и оставьте свои комментарий, если Вы скачали В погоне за Бонни и Клайдом через торрент бесплатно!!
    Комментировать посты могут только пользователи прошедшие не сложную регистрацию
    Показать сообщения:    


    В погоне за Бонни и Клайдом через торрент
    Скачать бесплатно В погоне за Бонни и Клайдом
    В погоне за Бонни и Клайдом скачать торрент
    В погоне за Бонни и Клайдом смотреть онлайн
    Cкачать фильм В погоне за Бонни и Клайдом бесплатно
    В погоне за Бонни и Клайдом скачать торрент в хорошем качестве
    В погоне за Бонни и Клайдом смотреть онлайн бесплатно в хорошем качестве
    Вы не можете начинать темы
    Вы не можете отвечать на сообщения
    Вы не можете редактировать свои сообщения
    Вы не можете удалять свои сообщения
    Вы не можете голосовать в опросах
    Вы не можете прикреплять файлы к сообщениям
    Вы можете скачивать файлы
    В погоне за Бонни и Клайдом / Разбойники с большой дороги / The Highwaymen [2019 г., триллер, драма, криминал, детектив, WEB-DLRip, Профессиональный ] смотреть онлайн, скачать торрент picoco.icu