ВНИМАНИЕ!!! Роскомнадзор заблокировал piratbit.org в РФ навсегда, просьба установить наш плагин который откроет доступ из РФ, для Хром, Ябраузер, Опера -> Mozilla FireFox и перейти на pb.wtf. о плагине

Лицензия

30

MVO

Как приручить дракона 3

11 сезон

1

1 сезон

гринч

iTunes

Стекло

iTunes

Клаустрофобы

8 сезон

Игра престолов

iTunes

Ральф против интернета Хит недели

ИГРА 18+

pack

ВАЖНО

!!Акция!!

Alien_RageХит недели

RePack

Resident Evil 21
pack

RePack

Metro:Exodus

!!Акция!!

Alien_Rage

RePack

fifa19

RePack

Assassins Creed: Odyssey

RePack

NEED FOR SPEED™ PAYBACK

3 сезон

9 сезон

Бесстыжие 9 сезон

Все сериалы

все сериалы на PB.wtf

RePack

FAR CRY 5
Ребята, критически не успеваем дособрать 3200р. для оплаты серверов за Март (всвязи с блокировками трафик упал в 3 раза), 1-2р., выручайте.
  

Белое золото / White Gold / Сезон: 2 / Серии: 1-6 из 6 (Деймон Бизли / Damon Beesley) [2019, комедия, HDTV 1080p] [MVO] (TVShows) piratbit.org

Белое золото через торрент piratbit.org

Раздают: 1 [ 0 KB/s ]
Размер: 4.71 GB | Добавлен: 4 д. назад | Торрент скачан:4 раза
Скачать  

31-03-2019 19:24 Белое золото Скачать торрент  

Белое золотоWhite Gold
Год выпуска: 2019
Страна: Великобритания
Производство: Fudge Park Productions
Жанр: комедия
Продолжительность: 00:30:00
Перевод: Профессиональный (многоголосый закадровый) TVShows

Автор идеи: Деймон Бизли / Damon Beesley
В ролях: Эд Вэствик, Джо Томас, Джеймс Бакли, Найджел Линдсей, Лорейн Брюс, Ли Росс, Джек Дулан, Линсей Кокер и др.
Описание: Рассказ о шоуруме пластиковых окон в Эссексе, в котором заправляет харизматичный продавец Винсент — умный, красивый и крутой. Он с радостью нарушит правила, если это позволит ему что-нибудь продать.
скриншот  

Качество: HDTV 1080p
Формат: MKV
Видео: x264, 1920x1080 (16:9), 25.000 fps, ~3320 kbps avg, 0.056 bit/pixel
Аудио #1: Russian 48.0 KHz, AC3, 2 (Front: L R) ch, ~384.00 kbps avg |TVShows|
Аудио #2: English 48.0 KHz, AC3, 2 (Front: L R) ch, ~192.00 kbps avg |Original|
General
Unique ID : 255030127076887896266021017125716563169 (0xBFDD040E78D89E89AC14F6ED7D7114E1)
Complete name : F:\White.Gold.S02.1080p.TVShows\White.Gold.S02E01.1080p.TVShows.mkv
Format : Matroska
Format version : Version 4 / Version 2
File size : 798 MiB
Duration : 28 min 36 s
Overall bit rate : 3 899 kb/s
Movie name : White Gold S02E01
Encoded date : UTC 2019-03-24 14:03:51
Writing application : mkvmerge v31.0.0 ('Dolores In A Shoestand') 64-bit
Writing library : libebml v1.3.6 + libmatroska v1.4.9

Video
ID : 1
Format : AVC
Format/Info : Advanced Video Codec
Format profile : High@L4
Format settings : CABAC / 4 Ref Frames
Format settings, CABAC : Yes
Format settings, ReFrames : 4 frames
Codec ID : V_MPEG4/ISO/AVC
Duration : 28 min 36 s
Bit rate : 3 320 kb/s
Width : 1 920 pixels
Height : 1 080 pixels
Display aspect ratio : 16:9
Frame rate mode : Constant
Frame rate : 25.000 FPS
Standard : Component
Color space : YUV
Chroma subsampling : 4:2:0
Bit depth : 8 bits
Scan type : MBAFF
Scan type, store method : Interleaved fields
Scan order : Top Field First
Bits/(Pixel*Frame) : 0.064
Stream size : 679 MiB (85%)
Language : English
Default : Yes
Forced : No
Color range : Limited
Color primaries : BT.709
Transfer characteristics : BT.709
Matrix coefficients : BT.709

Audio #1
ID : 2
Format : AC-3
Format/Info : Audio Coding 3
Codec ID : A_AC3
Duration : 28 min 36 s
Bit rate mode : Constant
Bit rate : 384 kb/s
Channel(s) : 2 channels
Channel positions : Front: L R
Sampling rate : 48.0 kHz
Frame rate : 31.250 FPS (1536 SPF)
Bit depth : 16 bits
Compression mode : Lossy
Stream size : 78.6 MiB (10%)
Title : TVShows
Language : Russian
Service kind : Complete Main
Default : Yes
Forced : Yes

Audio #2
ID : 3
Format : AC-3
Format/Info : Audio Coding 3
Codec ID : A_AC3
Duration : 28 min 36 s
Bit rate mode : Constant
Bit rate : 192 kb/s
Channel(s) : 2 channels
Channel positions : Front: L R
Sampling rate : 48.0 kHz
Frame rate : 31.250 FPS (1536 SPF)
Bit depth : 16 bits
Compression mode : Lossy
Stream size : 39.3 MiB (5%)
Title : Original
Language : English
Service kind : Complete Main
Default : No
Forced : No

скриншот  скриншот  скриншот  

Внимание! Раздача ведётся путём добавления новых серий; при каждом добавлении создаётся новый торрент. Чтобы начать докачку новой серии, пользователям необходимо сделать следующее:

Остановить скачивание.

Удалить старый торрент у себя из клиента (старые серии удалять не надо).

Скачать новый торрент и запустить его у себя в клиенте вместо старого, при этом указать клиенту путь в старую папку куда и должно происходить скачивание новых серий.

Ваш клиент при этом должен произвести хеширование (проверку) старой папки (если не производит сам - помогите ему сделать это), и будет докачивать только те серии которых у вас ещё нет. Старые серии при этом не удаляются, а продолжают раздаваться!

Eсли вы уже удалили старые серии, то предотвратить повторную закачку старых серий можно, отжав галочку в соответсвующих местах при запуске нового торрента. По возможности, желательно не удалять старые серии как можно дольше чтобы релизёр не столько продолжал раздавать старые серии, а смог сконцентрироваться на новых.
piratbit.org



Скачать Белое золото через торрент https://i110.fastpic.ru/big/2019/0331/ad/601ff914a452366f9c0f35d95e69f9ad.jpg Скачать фильм Белое золото через торрент бесплантно в хорошем качестве Описание: Рассказ о шоуруме пластиковых окон в Эссексе, в котором заправляет харизматичный продавец Винсент — умный, красивый и крутой. Он ... 5 10 1
Торрент: Зарегистрирован [2019-04-17 09:47] · скачан: 4 раз
Статус: √ проверено
Размер: 4.71 GB
Как cкачать? Как скачать Белое золото через торрент | qTorrent

% Раздел Тема Автор DL S | L
Зарубежные сериалы [ 3.07 GB ] Белое золото / White Gold / Сезон: 2 / Серии: 1-6 из 6 [2019 HDTV 720p] [MVO] killermax2013 Скачать
1 | 0


>> Регистрируемся здесь <<






Отзывы и комментарии о схеме читаем и пишем здесь: ---> Отзывы и комментарии о схеме

Новые благодарочки в телеграм довольных пользователей:
скриншот   скриншот   скриншот   скриншот   скриншот
    Дорогой пользователь! Огромная просьба, поблагодарите релизера, оцените раздачу и оставьте свои комментарий, если Вы скачали Белое золото через торрент бесплатно! Внесите свою лепту в развитие PiratBit!
    Комментировать посты могут только пользователи прошедшие не сложную регистрацию
    Показать сообщения:    

    Белое золото через торрент
    Скачать бесплатно Белое золото
    Белое золото скачать торрент
    Белое золото смотреть онлайн
    Cкачать фильм Белое золото бесплатно
    Белое золото скачать торрент в хорошем качестве
    Белое золото смотреть онлайн бесплатно в хорошем качестве


    Вы не можете начинать темы
    Вы не можете отвечать на сообщения
    Вы не можете редактировать свои сообщения
    Вы не можете удалять свои сообщения
    Вы не можете голосовать в опросах
    Вы не можете прикреплять файлы к сообщениям
    Вы можете скачивать файлы