ВНИМАНИЕ!!! Роскомнадзор заблокировал piratbit.org в РФ навсегда, просьба установить наш плагин который откроет доступ из РФ, для Хром, Ябраузер, Опера -> Mozilla FireFox и перейти на pb.wtf. о плагине

Лицензия

30

MVO

Как приручить дракона 3

11 сезон

1

1 сезон

гринч

iTunes

Стекло

iTunes

Клаустрофобы

8 сезон

Игра престолов

iTunes

Ральф против интернета Хит недели

ИГРА 18+

pack

ВАЖНО

!!Акция!!

Alien_RageХит недели

RePack

Resident Evil 21
pack

RePack

Metro:Exodus

!!Акция!!

Alien_Rage

RePack

fifa19

RePack

Assassins Creed: Odyssey

RePack

NEED FOR SPEED™ PAYBACK

3 сезон

9 сезон

Бесстыжие 9 сезон

Все сериалы

все сериалы на PB.wtf

RePack

FAR CRY 5
Ребята, критически не успеваем дособрать 3200р. для оплаты серверов за Март (всвязи с блокировками трафик упал в 3 раза), 1-2р., выручайте.
  

Белое золото / White Gold / Сезон: 2 / Серии: 1-6 из 6 (Деймон Бизли / Damon Beesley) [2019, комедия, HDTV 720p] [MVO] (TVShows) piratbit.org

Белое золото через торрент piratbit.org

Размер: 3.07 GB | Добавлен: 4 д. назад | Торрент скачан:2 раза
Скачать  

31-03-2019 19:30 Белое золото Скачать торрент  

Белое золотоWhite Gold
Год выпуска: 2019
Страна: Великобритания
Производство: Fudge Park Productions
Жанр: комедия
Продолжительность: 00:30:00
Перевод: Профессиональный (многоголосый закадровый) TVShows

Автор идеи: Деймон Бизли / Damon Beesley
В ролях: Эд Вэствик, Джо Томас, Джеймс Бакли, Найджел Линдсей, Лорейн Брюс, Ли Росс, Джек Дулан, Линсей Кокер и др.
Описание: Рассказ о шоуруме пластиковых окон в Эссексе, в котором заправляет харизматичный продавец Винсент — умный, красивый и крутой. Он с радостью нарушит правила, если это позволит ему что-нибудь продать.
скриншот  

Качество: HDTV 720p
Формат: MKV
Видео: MPEG-4 AVC, ~ 2600 Кбит/с, 1280x720
Аудио #1: Russian 48.0 KHz, AC3, 2 (Front: L R) ch, ~384.00 kbps avg |TVShows|
Аудио #2: English 48.0 KHz, AC3, 2 (Front: L R) ch, ~192.00 kbps avg |Original|
General
Unique ID : 68311772740407730145695473115809147516 (0x33645E6E1999AF277F1BA0C46D876A7C)
Complete name : E:\White.Gold.S02.720p.TVShows\White.Gold.S02E01.720p.TVShows.mkv
Format : Matroska
Format version : Version 4 / Version 2
File size : 546 MiB
Duration : 28 min 36 s
Overall bit rate : 2 667 kb/s
Movie name : White Gold S02E01
Encoded date : UTC 2019-03-24 14:03:14
Writing application : mkvmerge v31.0.0 ('Dolores In A Shoestand') 64-bit
Writing library : libebml v1.3.6 + libmatroska v1.4.9

Video
ID : 1
Format : AVC
Format/Info : Advanced Video Codec
Format profile : High@L4.1
Format settings : CABAC / 5 Ref Frames
Format settings, CABAC : Yes
Format settings, RefFrames : 5 frames
Codec ID : V_MPEG4/ISO/AVC
Duration : 28 min 36 s
Bit rate : 2 037 kb/s
Width : 1 280 pixels
Height : 720 pixels
Display aspect ratio : 16:9
Frame rate mode : Constant
Frame rate : 25.000 FPS
Color space : YUV
Chroma subsampling : 4:2:0
Bit depth : 8 bits
Scan type : Progressive
Bits/(Pixel*Frame) : 0.088
Stream size : 417 MiB (76%)
Writing library : x264 core 157 r2935 545de2f
Encoding settings : cabac=1 / ref=5 / deblock=1:0:0 / analyse=0x3:0x113 / me=hex / subme=8 / psy=1 / psy_rd=1.00:0.00 / mixed_ref=1 / me_range=16 / chroma_me=1 / trellis=2 / 8x8dct=1 / cqm=0 / deadzone=21,11 / fast_pskip=1 / chroma_qp_offset=-2 / threads=12 / lookahead_threads=2 / sliced_threads=0 / nr=0 / decimate=1 / interlaced=0 / bluray_compat=0 / constrained_intra=0 / bframes=3 / b_pyramid=2 / b_adapt=1 / b_bias=0 / direct=3 / weightb=1 / open_gop=0 / weightp=2 / keyint=250 / keyint_min=25 / scenecut=40 / intra_refresh=0 / rc_lookahead=50 / rc=crf / mbtree=1 / crf=18.0 / qcomp=0.60 / qpmin=0 / qpmax=69 / qpstep=4 / ip_ratio=1.40 / aq=1:1.00
Language : English
Default : Yes
Forced : No
Color range : Limited
Matrix coefficients : BT.709

Audio #1
ID : 2
Format : AC-3
Format/Info : Audio Coding 3
Format settings, Endianness : Big
Codec ID : A_AC3
Duration : 28 min 36 s
Bit rate mode : Constant
Bit rate : 384 kb/s
Channel(s) : 2 channels
Channel positions : Front: L R
Sampling rate : 48.0 kHz
Frame rate : 31.250 FPS (1536 SPF)
Bit depth : 16 bits
Compression mode : Lossy
Stream size : 78.6 MiB (14%)
Title : TVShows
Language : Russian
Service kind : Complete Main
Default : Yes
Forced : Yes

Audio #2
ID : 3
Format : AC-3
Format/Info : Audio Coding 3
Format settings, Endianness : Big
Codec ID : A_AC3
Duration : 28 min 36 s
Bit rate mode : Constant
Bit rate : 192 kb/s
Channel(s) : 2 channels
Channel positions : Front: L R
Sampling rate : 48.0 kHz
Frame rate : 31.250 FPS (1536 SPF)
Bit depth : 16 bits
Compression mode : Lossy
Stream size : 39.3 MiB (7%)
Title : Original
Language : English
Service kind : Complete Main
Default : No
Forced : No

скриншот  скриншот  скриншот  

Внимание! Раздача ведётся путём добавления новых серий; при каждом добавлении создаётся новый торрент. Чтобы начать докачку новой серии, пользователям необходимо сделать следующее:

Остановить скачивание.

Удалить старый торрент у себя из клиента (старые серии удалять не надо).

Скачать новый торрент и запустить его у себя в клиенте вместо старого, при этом указать клиенту путь в старую папку куда и должно происходить скачивание новых серий.

Ваш клиент при этом должен произвести хеширование (проверку) старой папки (если не производит сам - помогите ему сделать это), и будет докачивать только те серии которых у вас ещё нет. Старые серии при этом не удаляются, а продолжают раздаваться!

Eсли вы уже удалили старые серии, то предотвратить повторную закачку старых серий можно, отжав галочку в соответсвующих местах при запуске нового торрента. По возможности, желательно не удалять старые серии как можно дольше чтобы релизёр не столько продолжал раздавать старые серии, а смог сконцентрироваться на новых.
piratbit.org



Скачать Белое золото через торрент http://i2.imageban.ru/out/2017/07/10/906478fb1e31af6f8a7d7d9224241e1a.jpg Скачать фильм Белое золото через торрент бесплантно в хорошем качестве Описание: Рассказ о шоуруме пластиковых окон в Эссексе, в котором заправляет харизматичный продавец Винсент — умный, красивый и крутой. Он ... 5.5 10 2
Торрент: Зарегистрирован [2019-04-17 09:48] · скачан: 2 раз
Статус: √ проверено
Размер: 3.07 GB
Как cкачать? Как скачать Белое золото через торрент | qTorrent

% Раздел Тема Автор DL S | L
Зарубежные сериалы [ 4.71 GB ] Белое золото / White Gold / Сезон: 2 / Серии: 1-6 из 6 [2019 HDTV 1080p] [MVO] killermax2013 Скачать
2 | 0


>> Регистрируемся здесь <<






Отзывы и комментарии о схеме читаем и пишем здесь: ---> Отзывы и комментарии о схеме

Новые благодарочки в телеграм довольных пользователей:
скриншот   скриншот   скриншот   скриншот   скриншот
    Дорогой пользователь! Огромная просьба, поблагодарите релизера, оцените раздачу и оставьте свои комментарий, если Вы скачали Белое золото через торрент бесплатно! Внесите свою лепту в развитие PiratBit!
    Комментировать посты могут только пользователи прошедшие не сложную регистрацию
    Показать сообщения:    

    Белое золото через торрент
    Скачать бесплатно Белое золото
    Белое золото скачать торрент
    Белое золото смотреть онлайн
    Cкачать фильм Белое золото бесплатно
    Белое золото скачать торрент в хорошем качестве
    Белое золото смотреть онлайн бесплатно в хорошем качестве


    Вы не можете начинать темы
    Вы не можете отвечать на сообщения
    Вы не можете редактировать свои сообщения
    Вы не можете удалять свои сообщения
    Вы не можете голосовать в опросах
    Вы не можете прикреплять файлы к сообщениям
    Вы можете скачивать файлы