ВНИМАНИЕ!!! Роскомнадзор заблокировал piratbit.org в РФ навсегда, просьба установить наш плагин который откроет доступ из РФ, для Хром, Ябраузер, Опера -> Mozilla FireFox и перейти на pb.wtf. о плагине

Лицензия

30

MVO

Как приручить дракона 3

11 сезон

1

1 сезон

гринч

iTunes

Стекло

iTunes

Клаустрофобы

8 сезон

Игра престолов

iTunes

Ральф против интернета Хит недели

ИГРА 18+

pack

ВАЖНО

!!Акция!!

Alien_RageХит недели

RePack

Resident Evil 21
pack

RePack

Metro:Exodus

!!Акция!!

Alien_Rage

RePack

fifa19

RePack

Assassins Creed: Odyssey

RePack

NEED FOR SPEED™ PAYBACK

3 сезон

9 сезон

Бесстыжие 9 сезон

Все сериалы

все сериалы на PB.wtf

RePack

FAR CRY 5
Ребята, критически не успеваем дособрать 3200р. для оплаты серверов за Март (всвязи с блокировками трафик упал в 3 раза), 1-2р., выручайте.
  

Амбивалентность (Антон Бильжо) [2018, Драма, триллер, TS 720p] piratbit.org

Амбивалентность через торрент piratbit.org

Раздают: 2 [ 0 KB/s ]
Размер: 3.14 GB | Добавлен: 20 д. назад | Торрент скачан:21 раз
Скачать  

01-04-2019 09:08 Амбивалентность Скачать торрент  

Амбивалентность
Год выпуска: 2018
Страна: Россия
Жанр: Драма, триллер
Продолжительность: 01:53:04
Перевод: Не требуется
Субтитры: отсутствуют

Режиссер: Антон Бильжо

rating

В ролях:

Данил Стеклов, Егор Морозов, Ольга Цирсен, Валентина Куваева, Валентин Самохин, Иван Верховых, Галина Стаханова, Ксения Базанова, Дмитрий Журавлев, Гарик Айвазов

Описание:

Два друга, два молодых психиатра, очень по-разному воспринимают жизнь. Один хочет поступать правильно. Второй - ставить эксперименты. Один - прилежный ученик. Второй - нарушитель спокойствия. Но выдержит ли их дружба испытание страстью к одной женщине? Это интригующая история о необычном любовном треугольнике и о том, что безумие ближе, чем кажется.

Качество: TS 720p
Формат: MKV

Видео: h.264, 3 586 Кбит/с, 1280x660
Аудио: Русский, (AC3, 2 ch, 384 Кбит/с)
скриншот  скриншот  скриншот  

Общее
Уникальный идентификатор : 193788845182692806056533495236495064316 (0x91CA5FBD5223AE7CA1EA01103A46BCFC)
Полное имя : D:\AmBivaLenTnosT.2019.O.TS.72Op.mkv
Формат : Matroska
Версия формата : Version 2
Размер файла : 3,14 Гбайт
Продолжительность : 1 ч. 53 м.
Режим общего битрейта : Переменный
Общий поток : 3972 Кбит/сек
Дата кодирования : UTC 2019-03-31 08:18:04
Программа кодирования : mkvmerge v8.3.0 ('Over the Horizon') 64bit
Библиотека кодирования : libebml v1.3.1 + libmatroska v1.4.2

Видео
Идентификатор : 1
Формат : AVC
Формат/Информация : Advanced Video Codec
Профиль формата : High@L4.1
Параметр CABAC формата : Да
Параметр RefFrames формата : 4 кадра
Идентификатор кодека : V_MPEG4/ISO/AVC
Продолжительность : 1 ч. 53 м.
Вид битрейта : Переменный
Битрейт : 3586 Кбит/сек
Максимальный битрейт : 4000 Кбит/сек
Ширина : 1280 пикселей
Высота : 660 пикселей
Соотношение сторон : 1,939
Режим частоты кадров : Постоянный
Частота кадров : 23,976 (24000/1001) кадра/сек
Стандарт вещания : Component
Цветовое пространство : YUV
Субдискретизация насыщенности : 4:2:0
Битовая глубина : 8 бит
Тип развёртки : Прогрессивная
Бит/(Пиксели*Кадры) : 0.173
Размер потока : 2,77 Гбайт (88%)
Default : Да
Forced : Нет
Цветовой диапазон : Limited
Основные цвета : BT.709
Характеристики трансфера : BT.709
Коэффициенты матрицы : BT.709

Аудио
Идентификатор : 2
Формат : AC-3
Формат/Информация : Audio Coding 3
Расширение режима : CM (complete main)
Параметр Endianness формата : Big
Идентификатор кодека : A_AC3
Продолжительность : 1 ч. 53 м.
Вид битрейта : Постоянный
Битрейт : 384 Кбит/сек
Каналы : 2 канала
Расположение каналов : Front: L R
Частота : 48,0 КГц
Частота кадров : 31,250 кадров/сек (1536 spf)
Метод сжатия : С потерями
Размер потока : 311 Мбайт (10%)
Default : Да
Forced : Нет

piratbit.org



Скачать Амбивалентность через торрент https://b.radikal.ru/b19/1904/dd/43781edfcc87.jpg Скачать фильм Амбивалентность через торрент бесплантно в хорошем качестве Описание: Два друга, два молодых психиатра, очень по-разному воспринимают жизнь. Один хочет поступать правильно. Второй - ставить ... 7 10 3
Торрент: Зарегистрирован [2019-04-01 09:08] · скачан: 21 раз
Статус: T временная
Размер: 3.14 GB
Как cкачать? Как скачать Амбивалентность через торрент | qTorrent

% Раздел Тема Автор DL S | L
T Наши фильмы (мультфильмы) cо спонсором показа (Новинки AVI/MKV) [ 1.37 GB ] Амбивалентность [2018 TS] bober100 Скачать
2 | 0


>> Регистрируемся здесь <<






Отзывы и комментарии о схеме читаем и пишем здесь: ---> Отзывы и комментарии о схеме

Новые благодарочки в телеграм довольных пользователей:
скриншот   скриншот   скриншот   скриншот   скриншот

01-04-2019 15:13 Амбивалентность Скачать торрент  

Реинкарнация амбивалентность. Понеслась умными словечками заманивать.piratbit.org



    Дорогой пользователь! Огромная просьба, поблагодарите релизера, оцените раздачу и оставьте свои комментарий, если Вы скачали Амбивалентность через торрент бесплатно! Внесите свою лепту в развитие PiratBit!
    Комментировать посты могут только пользователи прошедшие не сложную регистрацию
    Показать сообщения:    

    Амбивалентность через торрент
    Скачать бесплатно Амбивалентность
    Амбивалентность скачать торрент
    Амбивалентность смотреть онлайн
    Cкачать фильм Амбивалентность бесплатно
    Амбивалентность скачать торрент в хорошем качестве
    Амбивалентность смотреть онлайн бесплатно в хорошем качестве


    Вы не можете начинать темы
    Вы не можете отвечать на сообщения
    Вы не можете редактировать свои сообщения
    Вы не можете удалять свои сообщения
    Вы не можете голосовать в опросах
    Вы не можете прикреплять файлы к сообщениям
    Вы можете скачивать файлы