Мега распродажа FORZA HORIZON 4 ULTIMATE+ВСЕ DLC+ОНЛАЙН всего за 499р. 349 руб. (супер цена). Внимание количество ограничено!!!

Лицензия

30

iTunes

мы

iTunes

1

1 сезон

Чернобыль

1 сезон

Ральф против интернета

MVO

Покемон. Детектив Пикачу

8 сезон

Игра престолов

iTunes

1+1

ИГРА 18+

pack

ВАЖНО

!!Акция!!

Alien_RageХит недели

RePack

Resident Evil 21
pack

RePack

Metro:Exodus

!!Акция!!

Alien_Rage

RePack

fifa19

RePack

Assassins Creed: Odyssey

RePack

NEED FOR SPEED™ PAYBACK

3 сезон

9 сезон

Бесстыжие 9 сезон

Все сериалы

все сериалы на PB.wtf

RePack

FAR CRY 5
Ребята, катастрофически не хватает 2730р. для оплаты серверов за МАЙ (всвязи с блокировками трафик упал в 3 раза), 1-2р., выручайте.
  

Амбивалентность (Антон Бильжо) [2018, Драма, триллер, WEB-DL 720p] piratbit.org

Амбивалентность через торрент piratbit.org

Размер: 4.66 GB | Добавлен: 1 мес. 20 д. назад | Торрент скачан:15 раз
Скачать  

01-04-2019 09:08 Амбивалентность Скачать торрент  

Амбивалентность
Год выпуска: 2018
Страна: Россия
Жанр: Драма, триллер
Продолжительность: 01:57:54
Перевод: Не требуется
Субтитры: отсутствуют

Режиссер: Антон Бильжо

rating

В ролях:

Данил Стеклов, Егор Морозов, Ольга Цирсен, Валентина Куваева, Валентин Самохин, Иван Верховых, Галина Стаханова, Ксения Базанова, Дмитрий Журавлев, Гарик Айвазов

Описание:

Два друга, два молодых психиатра, очень по-разному воспринимают жизнь. Один хочет поступать правильно. Второй - ставить эксперименты. Один - прилежный ученик. Второй - нарушитель спокойствия. Но выдержит ли их дружба испытание страстью к одной женщине? Это интригующая история о необычном любовном треугольнике и о том, что безумие ближе, чем кажется.

Качество: WEB-DL 720p
Формат: MKV

Видео: h.264,5 269 Кбит/с, 1160x720
Аудио: Русский, (AC3, 2 ch, 384 Кбит/с)
скриншот  скриншот  скриншот  

Общее
Уникальный идентификатор : 230416105606799575432045035411218204158 (0xAD58871A57FB96598BED359C391985FE)
Полное имя : D:\Ambivalentnost.2O19.O.WEB-DL.72Op.mkv
Формат : Matroska
Версия формата : Version 2
Размер файла : 4,66 Гбайт
Продолжительность : 1 ч. 57 м.
Режим общего битрейта : Переменный
Общий поток : 5654 Кбит/сек
Дата кодирования : UTC 2019-04-24 20:19:24
Программа кодирования : mkvmerge v8.3.0 ('Over the Horizon') 64bit
Библиотека кодирования : libebml v1.3.1 + libmatroska v1.4.2

Видео
Идентификатор : 1
Формат : AVC
Формат/Информация : Advanced Video Codec
Профиль формата : High@L4.1
Параметр CABAC формата : Да
Параметр RefFrames формата : 4 кадра
Идентификатор кодека : V_MPEG4/ISO/AVC
Продолжительность : 1 ч. 57 м.
Вид битрейта : Переменный
Битрейт : 5269 Кбит/сек
Максимальный битрейт : 6000 Кбит/сек
Ширина : 1160 пикселей
Высота : 720 пикселей
Соотношение сторон : 16:10
Режим частоты кадров : Постоянный
Частота кадров : 23,976 (24000/1001) кадра/сек
Стандарт вещания : Component
Цветовое пространство : YUV
Субдискретизация насыщенности : 4:2:0
Битовая глубина : 8 бит
Тип развёртки : Прогрессивная
Бит/(Пиксели*Кадры) : 0.258
Размер потока : 4,25 Гбайт (91%)
Default : Да
Forced : Нет
Цветовой диапазон : Limited
Основные цвета : BT.709
Характеристики трансфера : BT.709
Коэффициенты матрицы : BT.709

Аудио
Идентификатор : 2
Формат : AC-3
Формат/Информация : Audio Coding 3
Расширение режима : CM (complete main)
Параметр Endianness формата : Big
Идентификатор кодека : A_AC3
Продолжительность : 1 ч. 57 м.
Вид битрейта : Постоянный
Битрейт : 384 Кбит/сек
Каналы : 2 канала
Расположение каналов : Front: L R
Частота : 48,0 КГц
Частота кадров : 31,250 кадров/сек (1536 spf)
Метод сжатия : С потерями
Размер потока : 324 Мбайт (7%)
Default : Да
Forced : Нет

piratbit.org



Скачать Амбивалентность через торрент https://b.radikal.ru/b19/1904/dd/43781edfcc87.jpg Скачать фильм Амбивалентность через торрент бесплантно в хорошем качестве Описание: Два друга, два молодых психиатра, очень по-разному воспринимают жизнь. Один хочет поступать правильно. Второй - ставить ... 7 10 3
Торрент: Зарегистрирован [2019-04-26 06:44] · скачан: 15 раз
Статус: T временная
Размер: 4.66 GB
Как cкачать? Как скачать Амбивалентность через торрент | qTorrent

% Раздел Тема Автор DL S | L
T Наши фильмы (мультфильмы) cо спонсором показа (Новинки AVI/MKV) [ 5.22 GB ] Амбивалентность [2018 WEB-DL 1080p] bober100 Скачать
1 | 0
T Наши фильмы (мультфильмы) cо спонсором показа (Новинки AVI/MKV) [ 2.05 GB ] Амбивалентность [2018 WEB-DLRip] bober100 Скачать
1 | 0
T Наши фильмы (мультфильмы) cо спонсором показа (Новинки AVI/MKV) [ 1.37 GB ] Амбивалентность [2018 WEB-DLRip] bober100 Скачать
3 | 0


Последний раз редактировалось: bober100 (2019-04-26 06:44), всего редактировалось 1 раз


>> Регистрируемся здесь <<






Отзывы и комментарии о схеме читаем и пишем здесь: ---> Отзывы и комментарии о схеме

Новые благодарочки в телеграм довольных пользователей:
скриншот   скриншот   скриншот   скриншот   скриншот

01-04-2019 15:13 Амбивалентность Скачать торрент  

Реинкарнация амбивалентность. Понеслась умными словечками заманивать.piratbit.org



    Дорогой пользователь! Огромная просьба, поблагодарите релизера, оцените раздачу и оставьте свои комментарий, если Вы скачали Амбивалентность через торрент бесплатно! Внесите свою лепту в развитие PiratBit!
    Комментировать посты могут только пользователи прошедшие не сложную регистрацию
    Показать сообщения:    

    Амбивалентность через торрент
    Скачать бесплатно Амбивалентность
    Амбивалентность скачать торрент
    Амбивалентность смотреть онлайн
    Cкачать фильм Амбивалентность бесплатно
    Амбивалентность скачать торрент в хорошем качестве
    Амбивалентность смотреть онлайн бесплатно в хорошем качестве


    Вы не можете начинать темы
    Вы не можете отвечать на сообщения
    Вы не можете редактировать свои сообщения
    Вы не можете удалять свои сообщения
    Вы не можете голосовать в опросах
    Вы не можете прикреплять файлы к сообщениям
    Вы можете скачивать файлы