Доктор Стрэндж

Лицензия

Добыча

MVO

Дом дракона

1 сезон

Тор

Лицензия

Мэверик

Лицензия

Там, где раки поют

MVO

Властелин колец

1 сезон

Ultimate

pack

Рекомендуем

30

Repack

ВАЖНО

ВАЖНО

Ghostwire

RePack

jed

RePack

nioh2

RePack

RDR2

RePack

NEED FOR SPEED™ PAYBACK

RePack

скачать торрент

Кинопоиск HD

Острые козырьки 6 сезон

6 сезон

FAR CRY 6

RePack

скачать торрент

Лицензия

скачать торрент

MVO

1

1 сезон

скачать торрент

1 сезон

скачать торрент

Лицензия

  

Грешный ангел (Геннадий Казанский) [1963, СССР, драма, SATRip от AVP Studio]

Грешный ангел через торрент piratbit.org

Размер: 1.09 GB | Добавлен: 3 года 6 мес. назад | Торрент скачан:4 раза
Смотреть онлайн Грешный ангел | Скачать   

01-04-2019 13:29 Грешный ангел Скачать торрент  

Грешный ангел
Страна: СССР
Производство: Ленфильм

Жанр: драма
Год выпуска: 1963
Продолжительность: 01:29:01

Перевод: Не требуется
Cубтитры: нет
Оригинальная аудиодорожка: русский

Режиссер: Геннадий Казанский

В ролях:
Ольга Красина, Николай Волков (старший), Нина Веселовская, Геннадий Фролов, Юрий Медведев, Борис Чирков, Марк Перцовский, Галина Волчек, Алексей Кожевников, Валерий Денисов, Николай Мельников, Иосиф (Сосо) Абрамашвили, Светлана Балашова, Борис Бархатов...
Об актёрах подробней

Описание:
Четырнадцатилетняя Вера Телегина впервые увидела море, о котором мечтала с детства. Но здесь она оказалась случайно. Когда ее родителей репрессировали, она осталась одна. Старшина милиции Ставриди, узнав о беде девочки, устроил ее в школу-интернат. Многое пришлось пережить Вере, не раз она была на грани отчаяния. Но участие новых друзей, помощь и сочувствие взрослых помогли Вере дожить до весны 1953 года, когда пришла долгожданная телеграмма от родителей.

Исходник: DVB
Качество видео: SATRip
Формат видео: AVI

Видео: 704x528 (4:3), 25,000 кадров/сек, XviD ~ 1547 kbps avg, 0.166 bit/pixel
Аудио: 48 kHz, Dolby Digital AC3 2.0, 192 kbps

Раздача от:
Общее
Полное имя : Greshnyy.angel.1963.SATRip_[New-team]_by_AVP_Studio.avi
Формат : AVI
Формат/Информация : Audio Video Interleave
Размер файла : 1,09 Гбайт
Продолжительность : 1 ч. 29 м.
Общий поток : 1749 Кбит/сек
Программа кодирования : VirtualDubMod 1.5.10.3 | www.virtualdub-fr.org || (build 2550/release)
Библиотека кодирования : VirtualDubMod build 2550/release

Видео
Идентификатор : 0
Формат : MPEG-4 Visual
Профиль формата : Advanced Simple@L5
Настройки формата : BVOP1 / Custom Matrix
Параметр BVOP формата : 1
Параметр QPel формата : Нет
Параметр GMC формата : Без точки перехода
Параметр матрицы формата : Выборочная
Идентификатор кодека : XVID
Идентификатор кодека/Подсказка : XviD
Продолжительность : 1 ч. 29 м.
Битрейт : 1547 Кбит/сек
Ширина : 704 пикселя
Высота : 528 пикселей
Соотношение сторон : 4:3
Частота кадров : 25,000 кадров/сек
Цветовое пространство : YUV
Субдискретизация насыщенности : 4:2:0
Битовая глубина : 8 бит
Тип развёртки : Прогрессивная
Метод сжатия : С потерями
Бит/(Пиксели*Кадры) : 0.166
Размер потока : 987 Мбайт (88%)
Библиотека кодирования : XviD 73

Аудио
Идентификатор : 1
Формат : AC-3
Формат/Информация : Audio Coding 3
Коммерческое название : Dolby Digital
Идентификатор кодека : 2000
Продолжительность : 1 ч. 29 м.
Вид битрейта : Постоянный
Битрейт : 192 Кбит/сек
Каналы : 2 канала
Channel layout : L R
Частота : 48,0 КГц
Частота кадров : 31,250 кадров/сек (1536 SPF)
Битовая глубина : 16 бит
Метод сжатия : С потерями
Размер потока : 123 Мбайт (11%)
Выравнивание : Разделение по промежуткам
Продолжительность промежутка : 40 мс. (1,00 видеокадр)
Время предзагрузки промежутка : 500 мс



Скачать Грешный ангел через торрент http://picplus.ru/img/1904/01/54f0d58a.png Скачать, смотреть онлайн Грешный ангел бесплантно в хорошем качестве Описание:Четырнадцатилетняя Вера Телегина впервые увидела море, о котором мечтала с детства. Но здесь она оказалась случайно. Когда ее ... 5 10 1
Торрент: Зарегистрирован [2019-04-01 13:29] · скачан: 4 раз
Статус: √ проверено
Размер: 1.09 GB
Как cкачать? Как скачать Грешный ангел через торрент | UTorrent

% Раздел Тема Автор DL S | L
Кино СССР [ 1.09 GB ] Грешный ангел | | SATRip-AVC от AVP Studio AVP Studio Скачать
1 | 0

28-11-2019 20:33  

Отключить вcю реклaмy на сайте

    Дорогой пользователь! Огромная просьба, поблагодарите релизера, оцените раздачу и оставьте свои комментарий, если Вы скачали Грешный ангел через торрент бесплатно!!
    Комментировать посты могут только пользователи прошедшие не сложную регистрацию
    Показать сообщения:    


    Грешный ангел через торрент
    Скачать бесплатно Грешный ангел
    Грешный ангел скачать торрент
    Грешный ангел смотреть онлайн
    Cкачать фильм Грешный ангел бесплатно
    Грешный ангел скачать торрент в хорошем качестве
    Грешный ангел смотреть онлайн бесплатно в хорошем качестве
    Вы не можете начинать темы
    Вы не можете отвечать на сообщения
    Вы не можете редактировать свои сообщения
    Вы не можете удалять свои сообщения
    Вы не можете голосовать в опросах
    Вы не можете прикреплять файлы к сообщениям
    Вы можете скачивать файлы