ВНИМАНИЕ!!! Роскомнадзор заблокировал piratbit.org в РФ навсегда, просьба установить наш плагин который откроет доступ из РФ, для Хром, Ябраузер, Опера -> Mozilla FireFox и перейти на pb.wtf. о плагине

Лицензия

30

MVO

Как приручить дракона 3

11 сезон

1

1 сезон

гринч

iTunes

Стекло

iTunes

Клаустрофобы

8 сезон

Игра престолов

iTunes

Ральф против интернета Хит недели

ИГРА 18+

pack

ВАЖНО

!!Акция!!

Alien_RageХит недели

RePack

Resident Evil 21
pack

RePack

Metro:Exodus

!!Акция!!

Alien_Rage

RePack

fifa19

RePack

Assassins Creed: Odyssey

RePack

NEED FOR SPEED™ PAYBACK

3 сезон

9 сезон

Бесстыжие 9 сезон

Все сериалы

все сериалы на PB.wtf

RePack

FAR CRY 5
Ребята, критически не успеваем дособрать 3200р. для оплаты серверов за Март (всвязи с блокировками трафик упал в 3 раза), 1-2р., выручайте.
  

Ординатор / The Resident / Сезон: 2 / Серии: 1-19 из 22 (Роб Корн, Билл Д’Элиа, Филлип Нойс) [2018, Драма, WEB-DL 1080p] [MVO] (TVShows) piratbit.org

Ординатор через торрент piratbit.org

Размер: 60.59 GB | Добавлен: 3 д. назад | Торрент скачан:0 раз
Скачать  

01-04-2019 19:07 Ординатор Скачать торрент  

Ординатор|The Resident

Год выпуска: 2018
Страна:США, Paramount NetWork, Santa Fe Studios, Santa Fe, New Mexico
Жанр: Драма
Продолжительность: ~ 00:45:00
Перевод: Профессиональный (многоголосый закадровый) | TVShows
Режиссёр:Роб Корн, Билл Д’Элиа, Филлип Нойс
В ролях:Мэтт Зукри, Эмили ВанКэмп, Мелина Канакаридис, Ван Мартен, Маниш Дайал, Тассо Фельдман, Джессика Мизел, Винс Фостер, Элизабет Лудлоу, Кэролайн Фридлюнд
Описание: Сериал рассказывает о молодом враче с идеалистическими взглядами на жизнь, который начинает работать под началом блестящего и более опытного врача. Со временем главный герой понимает, что не всё так просто, и в его работе есть сотня нюансов, на которые невозможно закрыть глаза.

Качество: WEB-DL 1080p
Формат: MKV
Видео: 1920x1080 (16:9) | X264 | 8595 kb/s| 23.976 fps
Аудио 1: AC3, 48,0 КГц, 6 ch, 384 kbps - [RUS]
Аудио 2: E-AC3, 48,0 КГц, 6 ch, 640 kbps - [ENG]
Субтитры: английские
Реклама: Отсутствует
Format : Matroska
Format version : Version 4 / Version 2
File size : 3.14 GiB
Duration : 44 min 23 s
Overall bit rate : 10.1 Mb/s
Encoded date : UTC 2018-10-23 09:18:36
Writing application : mkvmerge v24.0.0 ('Beyond The Pale') 64-bit
Writing library : libebml v1.3.6 + libmatroska v1.4.9

Video
ID : 1
Format : AVC
Format/Info : Advanced Video Codec
Format profile : High@L4
Format settings : CABAC / 4 Ref Frames
Format settings, CABAC : Yes
Format settings, ReFrames : 4 frames
Codec ID : V_MPEG4/ISO/AVC
Duration : 44 min 23 s
Bit rate : 9 113 kb/s
Width : 1 920 pixels
Height : 1 080 pixels
Display aspect ratio : 16:9
Frame rate mode : Constant
Frame rate : 23.976 (24000/1001) FPS
Color space : YUV
Chroma subsampling : 4:2:0
Bit depth : 8 bits
Scan type : Progressive
Bits/(Pixel*Frame) : 0.183
Stream size : 2.83 GiB (90%)
Default : Yes
Forced : No
Color range : Limited
Color primaries : BT.709
Transfer characteristics : BT.709
Matrix coefficients : BT.709

Audio #1
ID : 2
Format : AC-3
Format/Info : Audio Coding 3
Codec ID : A_AC3
Duration : 44 min 23 s
Bit rate mode : Constant
Bit rate : 384 kb/s
Channel(s) : 6 channels
Channel positions : Front: L C R, Side: L R, LFE
Sampling rate : 48.0 kHz
Frame rate : 31.250 FPS (1536 SPF)
Bit depth : 16 bits
Compression mode : Lossy
Stream size : 122 MiB (4%)
Title : TVShows
Language : Russian
Service kind : Complete Main
Default : Yes
Forced : Yes

Audio #2
ID : 3
Format : E-AC-3
Format/Info : Enhanced Audio Coding 3
Codec ID : A_EAC3
Duration : 44 min 23 s
Bit rate mode : Constant
Bit rate : 640 kb/s
Channel(s) : 6 channels
Channel positions : Front: L C R, Side: L R, LFE
Sampling rate : 48.0 kHz
Frame rate : 187.500 FPS (256 SPF)
Compression mode : Lossy
Stream size : 203 MiB (6%)
Title : Original
Language : English
Service kind : Complete Main
Default : No
Forced : No

Text
ID : 4
Format : UTF-8
Codec ID : S_TEXT/UTF8
Codec ID/Info : UTF-8 Plain Text
Duration : 44 min 21 s
Bit rate : 95 b/s
Count of elements : 971
Stream size : 31.1 KiB (0%)
Title : English
Language : English
Default : No
Forced : No
скриншот  скриншот  скриншот  
Когда раздача ведётся путём добавления новых серий, при каждом добавлении создётся новый торрент. Чтобы начать докачку новой серии, пользователям необходимо сделать следующее:
(1) остановить скачивание,
(2) удалить старый торрент у себя из клиента (старые серии удалять не надо),
(3) скачать новый торрент и запустить его у себя в клиенте вместо старого, при этом указать клиенту путь в старую папку, куда и должно происходить скачивание новых серий.
Ваш клиент при этом должен произвести хеширование (проверку) старой папки (если не производит сам - помогите ему сделать это), и будет докачивать только те серии, которых у вас ещё нет. Старые серии при этом не удаляются, а продолжают раздаваться!
Eсли вы уже удалили старые серии, то предотвратить повторную закачку старых серий можно, отжав галочку в соответсвующих местах при запуске нового торрента. По возможности, желательно не удалять старые серии как можно дольше, чтобы релизёр не столько продолжал раздавать старые серии, а смог сконцентрироваться на новых.

piratbit.org



Скачать Ординатор через торрент http://i91.fastpic.ru/big/2018/0929/f2/37212efa2a08d37100bdb7f5847202f2.png Скачать фильм Ординатор через торрент бесплантно в хорошем качестве Описание: Сериал рассказывает о молодом враче с идеалистическими взглядами на жизнь, который начинает работать под началом блестящего и ... 10 10 1
Info! Золотая раздача, скачанное не засчитывается.
Торрент: Зарегистрирован [2019-04-17 14:26] · скачан: 0 раз
Статус: √ проверено
Размер: 60.59 GB
Как cкачать? Как скачать Ординатор через торрент | qTorrent

% Раздел Тема Автор DL S | L


>> Регистрируемся здесь <<






Отзывы и комментарии о схеме читаем и пишем здесь: ---> Отзывы и комментарии о схеме

Новые благодарочки в телеграм довольных пользователей:
скриншот   скриншот   скриншот   скриншот   скриншот
    Дорогой пользователь! Огромная просьба, поблагодарите релизера, оцените раздачу и оставьте свои комментарий, если Вы скачали Ординатор через торрент бесплатно! Внесите свою лепту в развитие PiratBit!
    Комментировать посты могут только пользователи прошедшие не сложную регистрацию
    Показать сообщения:    

    Ординатор через торрент
    Скачать бесплатно Ординатор
    Ординатор скачать торрент
    Ординатор смотреть онлайн
    Cкачать фильм Ординатор бесплатно
    Ординатор скачать торрент в хорошем качестве
    Ординатор смотреть онлайн бесплатно в хорошем качестве


    Вы не можете начинать темы
    Вы не можете отвечать на сообщения
    Вы не можете редактировать свои сообщения
    Вы не можете удалять свои сообщения
    Вы не можете голосовать в опросах
    Вы не можете прикреплять файлы к сообщениям
    Вы можете скачивать файлы