ВНИМАНИЕ!!! Роскомнадзор заблокировал piratbit.org в РФ навсегда, просьба установить наш плагин который откроет доступ из РФ, для Хром, Ябраузер, Опера -> Mozilla FireFox и перейти на pb.wtf. о плагине

Лицензия

30

MVO

Как приручить дракона 3

11 сезон

1

1 сезон

гринч

iTunes

Стекло

iTunes

Клаустрофобы

8 сезон

Игра престолов

iTunes

Ральф против интернета Хит недели

ИГРА 18+

pack

ВАЖНО

!!Акция!!

Alien_RageХит недели

RePack

Resident Evil 21
pack

RePack

Metro:Exodus

!!Акция!!

Alien_Rage

RePack

fifa19

RePack

Assassins Creed: Odyssey

RePack

NEED FOR SPEED™ PAYBACK

3 сезон

9 сезон

Бесстыжие 9 сезон

Все сериалы

все сериалы на PB.wtf

RePack

FAR CRY 5
Ребята, критически не успеваем дособрать 3200р. для оплаты серверов за Март (всвязи с блокировками трафик упал в 3 раза), 1-2р., выручайте.
  

Реальные пацаны / Сезон: 11 / Серии: 1-18 из 20 (Жанна Кадникова) [2019, Комедия, ситком, HDTV 1080i] piratbit.org

Реальные пацаны через торрент piratbit.org

Раздают: 9 [ 4 MB/s ] Качают: 17 [ 2 MB/s ]
Размер: 23.26 GB | Добавлен: 2 д. 19 ч. назад | Торрент скачан:7 раз
Скачать  

02-04-2019 06:51 Реальные пацаны Скачать торрент  

Реальные пацаныГод выпуска: 2019
Страна: Россия
Жанр: Комедия, ситком
Продолжительность: ~ 00:23:00
Перевод: Не требуется
Субтитры: отсутствуют

Режиссер: Жанна Кадникова

rating

В ролях:

Николай Наумов, Зоя Бербер, Антон Богданов, Владимир Селиванов, Станислав Тляшев, Мария Скорницкая, Валентина Мазунина, Марина Федункив, Армен Бежанян, Игорь Ознобихин, Алексей Базанов, Анастасия Плоскова, Сергей Ершов, Татьяна Ронзина, Любовь Рудометова, Юлия Гришнина, Михаил Чуднов, Юрий Богомолов, Василий Бичев, Анна Шепелева

Описание:

Успешные и знаменитые «Реальные пацаны» из гастрольного тура прошлого сезона вернутся в Пермь пожинать плоды своей популярности. Больше никогда не работать на дядю! Больше никогда не зависеть от Иваныча! Вечный кайф и полная идиллия. Только вот семейные заботы не дают выдохнуть. Но пацаны смотря вдаль и верят, что даже самая суровая «бытовуха» в итоге разрулится. Так-то всегда так бывает! В новом сезоне героев сериала ждут еще более взрослые и серьезные заботы. ЭКО, ипотека, свой бизнес – настало время новых возможностей! На протяжении 9-ти лет героям сериала удавалось уникальным образом выпутываться из самых разных передряг, сохраняя при этом важные жизненные ценности. Доброта, юмор, любовь и дружба – то, на чем держится мир «Реальных пацанов» не только в сериале ТНТ, но и в реальной жизни. А значит, проблемы обязательно решатся, даже если немного накосячить…

Качество: HDTV 1080i
Формат: TS

Видео: 1920х1080 (16:9), 25 fps, AVC MPEG-4 (x264), High@L4.0 ~ 7900 kbps avg, 0.121 bit/pixel
Аудио: 48 kHz, MPEG Layer 2, 2 ch, ~ 192 kbps avg
скриншот  скриншот  скриншот  скриншот  

Общее
Идентификатор : 1 (0x1)
Полное имя : D:\Realnye.pacany.s11.2019.HDTV.(1080i).ExKinoRay\Realnye.pacany.s11.(01.seriya).2019.HDTV.(1080i).ExKinoRay.ts
Формат : MPEG-TS
Размер файла : 1,25 Гбайт
Продолжительность : 21 м. 1 с.
Режим общего битрейта : Переменный
Общий поток : 8482 Кбит/сек

Видео
Идентификатор : 2741 (0xAB5)
Идентификатор меню : 1257 (0x4E9)
Формат : AVC
Формат/Информация : Advanced Video Codec
Профиль формата : High@L4
Параметр CABAC формата : Да
Параметр RefFrames формата : 4 кадра
Идентификатор кодека : 27
Продолжительность : 21 м. 1 с.
Битрейт : 7869 Кбит/сек
Ширина : 1920 пикселей
Высота : 1080 пикселей
Соотношение сторон : 16:9
Частота кадров : 25,000 кадров/сек
Цветовое пространство : YUV
Субдискретизация насыщенности : 4:2:0
Битовая глубина : 8 бит
Тип развёртки : MBAFF
Метод сохранения типа развёртки : Чередующиеся поля
Порядок развёртки : Верхнее поле первое
Бит/(Пиксели*Кадры) : 0.152
Размер потока : 1,16 Гбайт (93%)

Аудио
Идентификатор : 2742 (0xAB6)
Идентификатор меню : 1257 (0x4E9)
Формат : MPEG Audio
Версия формата : Version 1
Профиль формата : Layer 2
Режим : Joint stereo
Расширение режима : Intensity Stereo + MS Stereo
Идентификатор кодека : 3
Продолжительность : 21 м. 1 с.
Вид битрейта : Постоянный
Битрейт : 192 Кбит/сек
Каналы : 2 канала
Частота : 48,0 КГц
Метод сжатия : С потерями
Размер потока : 28,9 Мбайт (2%)
Язык : Russian

Внимание! Раздача ведётся путём добавления новых серий; при каждом добавлении создаётся новый торрент.
Чтобы начать докачку новой серии, пользователям необходимо сделать следующее:
1. Остановить скачивание;
2. Удалить старый торрент у себя из клиента (старые серии удалять не надо);
3. Скачать новый торрент и запустить его у себя в клиенте вместо старого, при этом указать клиенту путь в старую папку куда и должно происходить скачивание новых серий. Ваш клиент при этом должен произвести хеширование (проверку) старой папки и будет докачивать только те серии, которых у вас ещё нет. Старые серии при этом не удаляются, а продолжают раздаваться! Eсли вы уже удалили старые серии, то предотвратить повторную закачку старых серий можно, отжав галочку в соответствующих местах при запуске нового торрента.
piratbit.org



Скачать Реальные пацаны через торрент http://i40.fastpic.ru/big/2012/0917/f0/72962f6508c6d5e2c886c8e5473dd1f0.png Скачать фильм Реальные пацаны через торрент бесплантно в хорошем качестве Описание: Успешные и знаменитые «Реальные пацаны» из гастрольного тура прошлого сезона вернутся в Пермь пожинать плоды своей популярности. ... 9.2 10 11
Торрент: Зарегистрирован [2019-04-18 18:45] · скачан: 7 раз
Статус: √ проверено
Размер: 23.26 GB
Как cкачать? Как скачать Реальные пацаны через торрент | qTorrent

% Раздел Тема Автор DL S | L
TNT serials [ 8.03 GB ] Реальные пацаны / Сезон: 11 / Серии: 1-18 из 20 [2019 WEBRip 720p] DEVI Скачать
23 | 29
TNT serials [ 5.22 GB ] Реальные пацаны / Сезон: 11 / Серии: 1-18 из 20 [2019 ситком WEBRip-AVC] bober100 Скачать
13 | 44
TNT serials [ 5.28 GB ] Реальные пацаны / Сезон: 11 / Серии: 1-18 из 20 [2019 ситком WEB-DLRip] bober100 Скачать
8 | 9


>> Регистрируемся здесь <<






Отзывы и комментарии о схеме читаем и пишем здесь: ---> Отзывы и комментарии о схеме

Новые благодарочки в телеграм довольных пользователей:
скриншот   скриншот   скриншот   скриншот   скриншот
    Дорогой пользователь! Огромная просьба, поблагодарите релизера, оцените раздачу и оставьте свои комментарий, если Вы скачали Реальные пацаны через торрент бесплатно! Внесите свою лепту в развитие PiratBit!
    Комментировать посты могут только пользователи прошедшие не сложную регистрацию
    Показать сообщения:    

    Реальные пацаны через торрент
    Скачать бесплатно Реальные пацаны
    Реальные пацаны скачать торрент
    Реальные пацаны смотреть онлайн
    Cкачать фильм Реальные пацаны бесплатно
    Реальные пацаны скачать торрент в хорошем качестве
    Реальные пацаны смотреть онлайн бесплатно в хорошем качестве


    Вы не можете начинать темы
    Вы не можете отвечать на сообщения
    Вы не можете редактировать свои сообщения
    Вы не можете удалять свои сообщения
    Вы не можете голосовать в опросах
    Вы не можете прикреплять файлы к сообщениям
    Вы можете скачивать файлы