2 сезон

iTunes

WEBRip

1

2 сезон

iTunes

1 сезон

1 сезон

RePack

30

Ultimate

ВАЖНО

ИГРА 18+

pack

RePack

MK11
pack

Легкие деньги

RePack

jed

RePack

fifa19

RePack

RDR2

RePack

NEED FOR SPEED™ PAYBACK

4 сезон

9 сезон

Бесстыжие 9 сезон

Все сериалы

все сериалы на PB.wtf

RePack

FAR CRY 5

Anonymous, добрый вечер, мы не успеваем собрать деньги на оплату серверов за февраль, помогите нам пожалуйста в это трудное время. В качестве благодарности мы отключим Вам всю рекламу на сайте (укажите свой ник в строку Ваше имя)!

×
  
Magnet ссылка

В пустыне смерти / Into the Badlands / Сезон: 2 / Серии: 1-10 из 10 (Дэвид Добкин) [2017, боевик, приключения, WEB-DL 1080p] [Ukr MVO] (AMC) piratbit.org

В пустыне смерти через торрент piratbit.org

Размер: 17.14 GB | Добавлен: 1 год 10 мес. назад | Торрент скачан:8 раз
Скачать  

02-04-2019 16:43 В пустыне смерти Скачать торрент  

В пустыне смерти | Into the Badlands

Год выпуска: 2017
Страна: США
Жанр: Боевик, драма, приключения, экранизация
Продолжительность: ~ 00:43:00
Перевод: Украинский (профессиональный многоголосый) *AMC*

Режиссёр: Дэвид Добкин

В ролях: Эмили Бичем, Сара Болгер, Орла Брэйди, Мартон Чокаш, Элли Иоаннидес, Арамис Найт, Мадлен Манток, Майкл Сил, Оливер Старк, Дэниэл Ву и др.

Описание: Приключенческий боевик о двух друзьях. В пустыне смерти, какие испытания предстоит пройти главным героям на пути просвещения. Ради обретения высшей мудрости мастер боевых искусств Санни и его юный напарник решают пройти через неизведанные земли. Они знают, что там их будут встречать враждебно, но ради высшей цели главные герои готовы вынести всё. В основу сюжета сериала был положен китайский роман под названием «Путешествие на Запад». Во время путешествия Санни покажет в полной мере своё мастерство, а его юный друг сможет многому научиться, и владению собственным телом, и контролю над собственным духом.



Качество: WEB-DL 1080p
Формат: MKV
Видео: 1916x1076, 23.976 fps, MPEG-4 AVC ~5200 kbps avg
Аудио 1: Украинский / AC3 / 2.0 / 48 kHz / 192 kbps - AMC
Аудио 2: Английский / AC3 / 5.1 / 48 kHz / 384 kbps
Субтитры: English
General
Unique ID : 296666452781869364184007190954803104640 (0xDF2FE167D7E88FCFC55FA32BCB028B80)
Complete name : Into.the.Badlands.S02E01.1080p.WEB-DL.Ukr[AMC].Eng.mkv
Format : Matroska
Format version : Version 4 / Version 2
File size : 1.73 GiB
Duration : 43 min 6 s
Overall bit rate : 5 743 kb/s
Encoded date : UTC 2017-03-20 16:24:23
Writing application : mkvmerge v9.8.0 ('Kuglblids') 64bit
Writing library : libebml v1.3.4 + libmatroska v1.4.5

Video
ID : 1
Format : AVC
Format/Info : Advanced Video Codec
Format profile : High@L4
Format settings, CABAC : Yes
Format settings, ReFrames : 4 frames
Codec ID : V_MPEG4/ISO/AVC
Duration : 43 min 6 s
Bit rate : 5 165 kb/s
Width : 1 916 pixels
Height : 1 076 pixels
Display aspect ratio : 16:9
Frame rate mode : Constant
Frame rate : 23.976 (24000/1001) FPS
Color space : YUV
Chroma subsampling : 4:2:0
Bit depth : 8 bits
Scan type : Progressive
Bits/(Pixel*Frame) : 0.104
Stream size : 1.55 GiB (90%)
Language : English
Default : Yes
Forced : No
Color range : Limited
Color primaries : BT.709
Transfer characteristics : BT.709
Matrix coefficients : BT.709

Audio #1
ID : 2
Format : AC-3
Format/Info : Audio Coding 3
Mode extension : CM (complete main)
Format settings, Endianness : Big
Codec ID : A_AC3
Duration : 43 min 6 s
Bit rate mode : Constant
Bit rate : 192 kb/s
Channel(s) : 2 channels
Channel positions : Front: L R
Sampling rate : 48.0 kHz
Frame rate : 31.250 FPS (1536 spf)
Bit depth : 16 bits
Compression mode : Lossy
Stream size : 59.2 MiB (3%)
Language : Ukrainian
Default : Yes
Forced : No

Audio #2
ID : 3
Format : AC-3
Format/Info : Audio Coding 3
Mode extension : CM (complete main)
Format settings, Endianness : Big
Codec ID : A_AC3
Duration : 43 min 6 s
Bit rate mode : Constant
Bit rate : 384 kb/s
Channel(s) : 6 channels
Channel positions : Front: L C R, Side: L R, LFE
Sampling rate : 48.0 kHz
Frame rate : 31.250 FPS (1536 spf)
Bit depth : 16 bits
Compression mode : Lossy
Stream size : 118 MiB (7%)
Language : English
Default : No
Forced : No

Text
ID : 4
Format : UTF-8
Codec ID : S_TEXT/UTF8
Codec ID/Info : UTF-8 Plain Text
Duration : 42 min 5 s
Bit rate : 42 b/s
Count of elements : 478
Stream size : 13.2 KiB (0%)
Language : English
Default : No
Forced : No
скриншот  скриншот  скриншот  
piratbit.org



Скачать В пустыне смерти через торрент https://i110.fastpic.ru/big/2019/0402/a3/86b0f40cda389c2b2bf8040fbe0cdca3.jpg Скачать фильм В пустыне смерти через торрент бесплантно в хорошем качестве Описание: Приключенческий боевик о двух друзьях. В пустыне смерти, какие испытания предстоит пройти главным героям на пути просвещения. ... 5 10 1
Торрент: Зарегистрирован [2019-04-02 16:43] · скачан: 8 раз
Статус: √ проверено
Размер: 17.14 GB
Как cкачать? Как скачать В пустыне смерти через торрент | UTorrent

% Раздел Тема Автор DL S | L
Зарубежные сериалы [ 17.97 GB ] В пустыне смерти / Into the Badlands / 2 сезон / Серии 1-10 из 10 [2017 WEB-DLRip 1080p] MVO [BaibaKo] bober100 Скачать
1 | 0
Зарубежные сериалы [ 4.89 GB ] В пустыне смерти / Into the Badlands / 2 сезон / Серии 1-10 из 10 [2017 экранизация WEB-DLRip] MVO [LostFilm] bober100 Скачать
1 | 0

28-11-2019 20:33  

Отключить всю рекламу на сайте

    Дорогой пользователь! Огромная просьба, поблагодарите релизера, оцените раздачу и оставьте свои комментарий, если Вы скачали В пустыне смерти через торрент бесплатно! Внесите свою лепту в развитие PiratBit!
    Комментировать посты могут только пользователи прошедшие не сложную регистрацию
    Показать сообщения:    

    В пустыне смерти через торрент
    Скачать бесплатно В пустыне смерти
    В пустыне смерти скачать торрент
    В пустыне смерти смотреть онлайн
    Cкачать фильм В пустыне смерти бесплатно
    В пустыне смерти скачать торрент в хорошем качестве
    В пустыне смерти смотреть онлайн бесплатно в хорошем качестве


    Вы не можете начинать темы
    Вы не можете отвечать на сообщения
    Вы не можете редактировать свои сообщения
    Вы не можете удалять свои сообщения
    Вы не можете голосовать в опросах
    Вы не можете прикреплять файлы к сообщениям
    Вы можете скачивать файлы