1 сезон

3 сезон

iTunes

1

iTunes

DUB Netflix

iTunes

13

1 сезон

RePack

30

Deluxe

pack

Легкие деньги

ВАЖНО

ИГРА 18+

pack

RePack

MK11

RePack

jed

RePack

fifa19

RePack

RDR2

RePack

NEED FOR SPEED™ PAYBACK

4 сезон

9 сезон

Бесстыжие 9 сезон

Все сериалы

все сериалы на PB.wtf

RePack

FAR CRY 5

Anonymous, доброй ночи, мы не успеваем до 1 числа собрать деньги на оплату серверов, помогите нам пожалуйста в это трудное время. В качестве благодарности мы отключим Вам всю рекламу на сайте (укажите свой ник в строку Ваше имя)!

×
  
Magnet ссылка

Реальные пацаны / Сезон: 11 / Серии: 1-20 из 20 (Жанна Кадникова) [2019, Комедия, ситком, WEB-DLRip] piratbit.org

Реальные пацаны через торрент piratbit.org

Размер: 5.86 GB | Добавлен: 2 года 2 мес. назад | Торрент скачан:80 раз
Скачать  

03-04-2019 05:51 Реальные пацаны Скачать торрент  

Реальные пацаны
Год выпуска: 2019
Страна: Россия
Жанр: Комедия, ситком
Продолжительность: ~ 00:23:00
Перевод: Не требуется
Субтитры: отсутствуют

Режиссер: Жанна Кадникова

rating

В ролях:

Николай Наумов, Зоя Бербер, Антон Богданов, Владимир Селиванов, Станислав Тляшев, Мария Скорницкая, Валентина Мазунина, Марина Федункив, Армен Бежанян, Игорь Ознобихин, Алексей Базанов, Анастасия Плоскова, Сергей Ершов, Татьяна Ронзина, Любовь Рудометова, Юлия Гришнина, Михаил Чуднов, Юрий Богомолов, Василий Бичев, Анна Шепелева

Описание:

Успешные и знаменитые «Реальные пацаны» из гастрольного тура прошлого сезона вернутся в Пермь пожинать плоды своей популярности. Больше никогда не работать на дядю! Больше никогда не зависеть от Иваныча! Вечный кайф и полная идиллия. Только вот семейные заботы не дают выдохнуть. Но пацаны смотря вдаль и верят, что даже самая суровая «бытовуха» в итоге разрулится. Так-то всегда так бывает! В новом сезоне героев сериала ждут еще более взрослые и серьезные заботы. ЭКО, ипотека, свой бизнес – настало время новых возможностей! На протяжении 9-ти лет героям сериала удавалось уникальным образом выпутываться из самых разных передряг, сохраняя при этом важные жизненные ценности. Доброта, юмор, любовь и дружба – то, на чем держится мир «Реальных пацанов» не только в сериале ТНТ, но и в реальной жизни. А значит, проблемы обязательно решатся, даже если немного накосячить…

Качество: WEB-DLRip
Формат: MKV

Видео: 720x400 (1.80:1), 25 fps, XviD ~1750 kbps avg, 0.243 bit/pixel
Аудио: 48.0 kHz, AC3 Dolby Digital, 2/0 (L,R) ch, ~ 192 kbps
скриншот  скриншот  скриншот  скриншот  

скриншот  скриншот  скриншот  скриншот  

General
Complete name : D:\Realnye.pacany.s11.WEB-DLRip.25Kuzmich\Realnye.pacany.s11.e01.WEB-DLRip.25Kuzmich.avi
Format : AVI
Format/Info : Audio Video Interleave
File size : 300 MiB
Duration : 21 min 30 s
Overall bit rate : 1 953 kb/s
Writing application : VirtualDubMod 1.5.10.3 | www.virtualdub-fr.org || (build 2550/release)
Writing library : VirtualDubMod build 2550/release

Video
ID : 0
Format : MPEG-4 Visual
Format profile : Advanced Simple@L5
Format settings : BVOP1
Format settings, BVOP : 1
Format settings, QPel : No
Format settings, GMC : No warppoints
Format settings, Matrix : Default (MPEG)
Codec ID : XVID
Codec ID/Hint : XviD
Duration : 21 min 30 s
Bit rate : 1 751 kb/s
Width : 720 pixels
Height : 400 pixels
Display aspect ratio : 16:9
Frame rate : 25.000 FPS
Color space : YUV
Chroma subsampling : 4:2:0
Bit depth : 8 bits
Scan type : Progressive
Compression mode : Lossy
Bits/(Pixel*Frame) : 0.243
Stream size : 269 MiB (90%)
Writing library : XviD 73

Audio
ID : 1
Format : AC-3
Format/Info : Audio Coding 3
Codec ID : 2000
Duration : 21 min 30 s
Bit rate mode : Constant
Bit rate : 192 kb/s
Channel(s) : 2 channels
Channel positions : Front: L R
Sampling rate : 48.0 kHz
Frame rate : 31.250 FPS (1536 SPF)
Bit depth : 16 bits
Compression mode : Lossy
Stream size : 29.5 MiB (10%)
Alignment : Split accross interleaves
Interleave, duration : 40 ms (1.00 video frame)
Interleave, preload duratio : 500 ms
Service kind : Complete Main

Внимание! Раздача ведётся путём добавления новых серий; при каждом добавлении создаётся новый торрент.
Чтобы начать докачку новой серии, пользователям необходимо сделать следующее:
1. Остановить скачивание;
2. Удалить старый торрент у себя из клиента (старые серии удалять не надо);
3. Скачать новый торрент и запустить его у себя в клиенте вместо старого, при этом указать клиенту путь в старую папку куда и должно происходить скачивание новых серий. Ваш клиент при этом должен произвести хеширование (проверку) старой папки и будет докачивать только те серии, которых у вас ещё нет. Старые серии при этом не удаляются, а продолжают раздаваться! Eсли вы уже удалили старые серии, то предотвратить повторную закачку старых серий можно, отжав галочку в соответствующих местах при запуске нового торрента.
piratbit.org



Скачать Реальные пацаны через торрент http://img14.lostpic.net/2019/03/26/d2b3814c580062bdb24485313c25282f.jpg Скачать фильм Реальные пацаны через торрент бесплантно в хорошем качестве Описание: Успешные и знаменитые «Реальные пацаны» из гастрольного тура прошлого сезона вернутся в Пермь пожинать плоды своей популярности. ... 10 10 9
Торрент: Зарегистрирован [2019-04-23 18:28] · скачан: 80 раз
Статус: √ проверено
Размер: 5.86 GB
Как cкачать? Как скачать Реальные пацаны через торрент | UTorrent

% Раздел Тема Автор DL S | L
Наши сериалы [ 5.82 GB ] Реальные пацаны. Возвращение / 7 Сезон: / 1-11 Серия из 20 [2014 Россия WEB-DL 720p) GEKADOL Скачать
1 | 0
TNT serials [ 8.87 GB ] Реальные пацаны / Сезон: 11 / Серии: 1-20 из 20 [2019 WEBRip 720p] DEVI Скачать
2 | 0
TNT serials [ 16.49 GB ] Реальные пацаны / Сезон: 11 / Серии: 1-20 из 20 [2019 WEB-DL 1080p] bober100 Скачать
1 | 0
TNT serials [ 5.77 GB ] Реальные пацаны / Сезон: 11 / Серии: 1-20 из 20 [2019 ситком WEBRip-AVC] bober100 Скачать
2 | 0
TNT serials [ 25.51 GB ] Реальные пацаны / Сезон: 11 / Серии: 1-20 из 20 [2019 ситком HDTV 1080i] bober100 Скачать
1 | 0

28-11-2019 20:33  

Отключить всю рекламу на сайте

    Дорогой пользователь! Огромная просьба, поблагодарите релизера, оцените раздачу и оставьте свои комментарий, если Вы скачали Реальные пацаны через торрент бесплатно! Внесите свою лепту в развитие PiratBit!
    Комментировать посты могут только пользователи прошедшие не сложную регистрацию
    Показать сообщения:    

    Реальные пацаны через торрент
    Скачать бесплатно Реальные пацаны
    Реальные пацаны скачать торрент
    Реальные пацаны смотреть онлайн
    Cкачать фильм Реальные пацаны бесплатно
    Реальные пацаны скачать торрент в хорошем качестве
    Реальные пацаны смотреть онлайн бесплатно в хорошем качестве


    Вы не можете начинать темы
    Вы не можете отвечать на сообщения
    Вы не можете редактировать свои сообщения
    Вы не можете удалять свои сообщения
    Вы не можете голосовать в опросах
    Вы не можете прикреплять файлы к сообщениям
    Вы можете скачивать файлы