2 сезон

iTunes

WEBRip

1

2 сезон

iTunes

1 сезон

1 сезон

RePack

30

Новинка

ВАЖНО

ИГРА 18+

pack

RePack

MK11
pack

Легкие деньги

RePack

jed

RePack

fifa19

RePack

RDR2

RePack

NEED FOR SPEED™ PAYBACK

4 сезон

9 сезон

Бесстыжие 9 сезон

Все сериалы

все сериалы на PB.wtf

RePack

FAR CRY 5

Anonymous, доброй ночи, мы не успеваем собрать деньги на оплату серверов за февраль, помогите нам пожалуйста в это трудное время. В качестве благодарности мы отключим Вам всю рекламу на сайте (укажите свой ник в строку Ваше имя)!

×
  
Magnet ссылка

Стекло / Glass (М. Найт Шьямалан) [2019, фантастика, триллер, драма, детектив, WEBRip 2160p] [Ukr DUB] piratbit.org

Стекло через торрент piratbit.org

Размер: 23.43 GB | Добавлен: 1 год 10 мес. назад | Торрент скачан:31 раз
Скачать  

03-04-2019 20:25 Стекло Скачать торрент  

Стекло / Glass
Год выпуска: 2019
Страна: США
Жанр: фантастика, триллер, драма, детектив
Продолжительность: 02:09:02
Перевод : Украинский (дублированный)

Режиссер: М. Найт Шьямалан

В ролях: Аня Тейлор-Джой, Джеймс МакЭвой, Сара Полсон, Брюс Уиллис, Сэмюэл Л. Джексон, Спенсер Трит Кларк, Люк Кирби, Джейн Парк Смит, Кайли Зион, Нина Уиснер

Описание: Похититель с множественным расстройством личности и террорист-инвалид Мистер Стекло выходят на своих давних противников - травмированную девочку-подростка Кейси и стареющего супергероя Дэвида Данна.

ratingскриншот  

Файл
Качество : WEBRip 2160p
Видео: AVC, 3840x1608 (2.40:1), 23.976 fps, 25.0 Mb/s
Аудио 1: AC-3, 48.0 kHz, 2 ch, 384 kb/s (Ukrainian)
Аудио 2: E-AC-3, 48.0 kHz, 6 ch, 640 kb/s (English)
Субтитры: Английские
General
Unique ID : 193141232916059829145379717624135171863 (0x914DA5FD56B15C6E96D1FD3CCC4C3F17)
Complete name : Glass.2019.2160p..AMZN.WEBRip.Ukr.Eng.mkv
Format : Matroska
Format version : Version 4
File size : 23.4 GiB
Duration : 2 h 9 min
Overall bit rate : 26.0 Mb/s
Encoded date : UTC 2019-04-03 17:39:52
Writing application : mkvmerge v8.3.0 ('Over the Horizon') 64bit
Writing library : libebml v1.3.1 + libmatroska v1.4.2

Video
ID : 1
Format : AVC
Format/Info : Advanced Video Codec
Format profile : High@L5.1
Format settings : CABAC / 7 Ref Frames
Format settings, CABAC : Yes
Format settings, ReFrames : 7 frames
Codec ID : V_MPEG4/ISO/AVC
Duration : 2 h 9 min
Bit rate : 25.0 Mb/s
Width : 3 840 pixels
Height : 1 608 pixels
Display aspect ratio : 2.40:1
Frame rate mode : Constant
Frame rate : 23.976 (24000/1001) FPS
Color space : YUV
Chroma subsampling : 4:2:0
Bit depth : 8 bits
Scan type : Progressive
Bits/(Pixel*Frame) : 0.169
Stream size : 22.5 GiB (96%)
Writing library : x264 core 152 r2851kMod ba24899
Encoding settings : cabac=1 / ref=7 / deblock=1:-3:-3 / analyse=0x3:0x133 / me=umh / subme=10 / psy=1 / fade_compensate=0.00 / psy_rd=1.00:0.00 / mixed_ref=1 / me_range=48 / chroma_me=1 / trellis=2 / 8x8dct=1 / cqm=0 / deadzone=21,11 / fast_pskip=0 / chroma_qp_offset=-2 / threads=18 / lookahead_threads=3 / sliced_threads=0 / nr=0 / decimate=0 / interlaced=0 / bluray_compat=0 / constrained_intra=0 / bframes=8 / b_pyramid=2 / b_adapt=2 / b_bias=0 / direct=3 / weightb=1 / open_gop=0 / weightp=2 / keyint=250 / keyint_min=23 / scenecut=40 / intra_refresh=0 / rc=crf / mbtree=0 / crf=17.0000 / qcomp=0.60 / qpmin=0 / qpmax=69 / qpstep=4 / ip_ratio=1.30 / pb_ratio=1.20 / aq=3:0.80
Default : Yes
Forced : No

Audio #1
ID : 2
Format : AC-3
Format/Info : Audio Coding 3
Commercial name : Dolby Digital
Codec ID : A_AC3
Duration : 2 h 9 min
Bit rate mode : Constant
Bit rate : 384 kb/s
Channel(s) : 2 channels
Channel layout : L R
Sampling rate : 48.0 kHz
Frame rate : 31.250 FPS (1536 SPF)
Bit depth : 16 bits
Compression mode : Lossy
Stream size : 354 MiB (1%)
Language : Ukrainian
Default : Yes
Forced : No

Audio #2
ID : 3
Format : E-AC-3
Format/Info : Enhanced AC-3
Commercial name : Dolby Digital Plus
Codec ID : A_EAC3
Duration : 2 h 9 min
Bit rate mode : Constant
Bit rate : 640 kb/s
Channel(s) : 6 channels
Channel layout : L R C LFE Ls Rs
Sampling rate : 48.0 kHz
Frame rate : 31.250 FPS (1536 SPF)
Compression mode : Lossy
Stream size : 591 MiB (2%)
Language : English
Default : No
Forced : No

Text #1
ID : 4
Format : UTF-8
Codec ID : S_TEXT/UTF8
Codec ID/Info : UTF-8 Plain Text
Duration : 2 h 7 min
Bit rate : 41 b/s
Count of elements : 1373
Stream size : 39.2 KiB (0%)
Language : English
Default : No
Forced : No

Text #2
ID : 5
Format : UTF-8
Codec ID : S_TEXT/UTF8
Codec ID/Info : UTF-8 Plain Text
Duration : 2 h 8 min
Bit rate : 54 b/s
Count of elements : 1834
Stream size : 51.0 KiB (0%)
Title : SDH
Language : English
Default : No
Forced : No
скриншот  скриншот  скриншот  
piratbit.org



Скачать Стекло через торрент https://i109.fastpic.ru/big/2019/0402/3a/d1942d10245cc86da9a64b7356c5423a.jpg Скачать фильм Стекло через торрент бесплантно в хорошем качестве Описание: Похититель с множественным расстройством личности и террорист-инвалид Мистер Стекло выходят на своих давних противников - ... 10 10 2
Торрент: Зарегистрирован [2019-04-03 20:25] · скачан: 31 раз
Статус: T временная
Размер: 23.43 GB
Как cкачать? Как скачать Стекло через торрент | UTorrent

% Раздел Тема Автор DL S | L
Фильмы 2019-2020 [DVDrip, WEB-DLRip, HDrip] (DUB, MVO) [ 2.98 GB ] Стекло / Glass [2019 BDRip-AVC] MVO [HDRezka Studio] + AVO [Чадов Есарев] - ExKinoRay Enigma2010 Скачать
6 | 0
Фильмы 2019-2020 [DVDrip, WEB-DLRip, HDrip] (DUB, MVO) [ 2.13 GB ] Стекло / Glass [2019 BDRip] - Twi7ter Скачать
3 | 0
Фильмы (HD 720p, 1080p) (48-60 fps) [ 26.55 GB ] Стекло / Glass [2019 BDRip 1080p 60 fps] sheker187 Скачать
1 | 0
Ultra HD (UHD: 2K, 4K, 8K) — видео сверхвысокой чёткости [ 86.39 GB ] Стекло / Glass [2019 UHD Blu-ray 2160p] sheker187 Скачать
1 | 0
Ultra HD (UHD: 2K, 4K, 8K) — видео сверхвысокой чёткости [ 29.48 GB ] Стекло / Glass [2019 UHD BDRip 2160p] [SDR] DUB + MVO [HDRezka Studio] sheker187 Скачать
1 | 0
Ultra HD (UHD: 2K, 4K, 8K) — видео сверхвысокой чёткости [ 17.29 GB ] Стекло / Glass [2019 UHD BDRip 2160p] DUB + MVO [HDRezka Studio] sheker187 Скачать
1 | 0
Фильмы [HD 720p, 1080p] (Хороший звук DUB, MVO) [ 9.87 GB ] Стекло / Glass [2019 BDRip 1080p] bober100 Скачать
2 | 0

28-11-2019 20:33  

Отключить всю рекламу на сайте

    Дорогой пользователь! Огромная просьба, поблагодарите релизера, оцените раздачу и оставьте свои комментарий, если Вы скачали Стекло через торрент бесплатно! Внесите свою лепту в развитие PiratBit!
    Комментировать посты могут только пользователи прошедшие не сложную регистрацию
    Показать сообщения:    

    Стекло через торрент
    Скачать бесплатно Стекло
    Стекло скачать торрент
    Стекло смотреть онлайн
    Cкачать фильм Стекло бесплатно
    Стекло скачать торрент в хорошем качестве
    Стекло смотреть онлайн бесплатно в хорошем качестве


    Вы не можете начинать темы
    Вы не можете отвечать на сообщения
    Вы не можете редактировать свои сообщения
    Вы не можете удалять свои сообщения
    Вы не можете голосовать в опросах
    Вы не можете прикреплять файлы к сообщениям
    Вы можете скачивать файлы