Мега распродажа FORZA HORIZON 4 ULTIMATE+ВСЕ DLC+ОНЛАЙН всего за 499р. 349 руб. (супер цена). Внимание количество ограничено!!!

Лицензия

30

iTunes

мы

iTunes

1

1 сезон

Чернобыль

1 сезон

Ральф против интернета

MVO

Покемон. Детектив Пикачу

8 сезон

Игра престолов

iTunes

1+1

ИГРА 18+

pack

ВАЖНО

!!Акция!!

Alien_RageХит недели

RePack

Resident Evil 21
pack

RePack

Metro:Exodus

!!Акция!!

Alien_Rage

RePack

fifa19

RePack

Assassins Creed: Odyssey

RePack

NEED FOR SPEED™ PAYBACK

3 сезон

9 сезон

Бесстыжие 9 сезон

Все сериалы

все сериалы на PB.wtf

RePack

FAR CRY 5
Ребята, катастрофически не хватает 2730р. для оплаты серверов за МАЙ (всвязи с блокировками трафик упал в 3 раза), 1-2р., выручайте.
  

Балканский рубеж (Андрей Волгин) [2019, боевик, драма, TS 720p] piratbit.org

Балканский рубеж через торрент piratbit.org

Раздают: 4 [ 0 KB/s ]
Размер: 4.13 GB | Добавлен: 2 мес. 22 д. назад | Торрент скачан:219 раз
Скачать  

31-03-2019 10:08 Балканский рубеж Скачать торрент  

Балканский рубеж Год выпуска: 2019
Страна: Россия, Сербия
Жанр: боевик, драма
Продолжительность: 02:23:56
Перевод: Не требуется
Субтитры: отсутствуют

Режиссер: Андрей Волгин

rating

В ролях:

Антон Пампушный, Гоша Куценко, Милош Бикович, Милена Радулович, Гойко Митич, Равшана Куркова, Дмитрий Фрид, Александар Сречкович, Светлана Чуйкина, Миодраг Радонич

Описание:

Югославия. 1999 год. Российская спецгруппа получает приказ взять под контроль аэродром Слатина в Косово и удерживать его до прихода подкрепления. Но этот стратегический объект крайне важен албанскому полевому командиру и натовским генералам. Группа вынуждена принять неравный бой с террористами. К аэродрому устремляются российские миротворцы и силы НАТО. Мир вновь близок к большой войне. Но командиру спецгруппы Андрею Шаталову не до политики: в аэропорту среди заложников его любимая девушка Ясна...

Качество: TS 720p
Формат: MKV

Видео: h.264, 3 720 Кбит/с, 1280x536
Аудио: Русский, (AC3, 2 ch, 384 Кбит/с)
скриншот  скриншот  скриншот  

Общее
Уникальный идентификатор : 198306819021550148882238227349131691834 (0x9530810C3CC8409BB234102421CF073A)
Полное имя : D:\BaLKnsky.RubweG.2O19.O.TS.72Op.mkv
Формат : Matroska
Версия формата : Version 2
Размер файла : 4,13 Гбайт
Продолжительность : 2 ч. 23 м.
Режим общего битрейта : Переменный
Общий поток : 4106 Кбит/сек
Дата кодирования : UTC 2019-03-24 05:57:40
Программа кодирования : mkvmerge v8.3.0 ('Over the Horizon') 64bit
Библиотека кодирования : libebml v1.3.1 + libmatroska v1.4.2

Видео
Идентификатор : 1
Формат : AVC
Формат/Информация : Advanced Video Codec
Профиль формата : High@L4.1
Параметр CABAC формата : Да
Параметр RefFrames формата : 4 кадра
Идентификатор кодека : V_MPEG4/ISO/AVC
Продолжительность : 2 ч. 23 м.
Вид битрейта : Переменный
Битрейт : 3720 Кбит/сек
Максимальный битрейт : 4000 Кбит/сек
Ширина : 1280 пикселей
Высота : 536 пикселей
Соотношение сторон : 2,40:1
Режим частоты кадров : Постоянный
Частота кадров : 23,976 (24000/1001) кадра/сек
Стандарт вещания : Component
Цветовое пространство : YUV
Субдискретизация насыщенности : 4:2:0
Битовая глубина : 8 бит
Тип развёртки : Прогрессивная
Бит/(Пиксели*Кадры) : 0.221
Размер потока : 3,66 Гбайт (89%)
Default : Да
Forced : Нет
Цветовой диапазон : Limited
Основные цвета : BT.709
Характеристики трансфера : BT.709
Коэффициенты матрицы : BT.709

Аудио
Идентификатор : 2
Формат : AC-3
Формат/Информация : Audio Coding 3
Расширение режима : CM (complete main)
Параметр Endianness формата : Big
Идентификатор кодека : A_AC3
Продолжительность : 2 ч. 23 м.
Вид битрейта : Постоянный
Битрейт : 384 Кбит/сек
Каналы : 2 канала
Расположение каналов : Front: L R
Частота : 48,0 КГц
Частота кадров : 31,250 кадров/сек (1536 spf)
Метод сжатия : С потерями
Размер потока : 395 Мбайт (9%)
Default : Да
Forced : Нет

piratbit.org



Скачать Балканский рубеж через торрент https://b.radikal.ru/b37/1903/38/e446853a643e.jpg Скачать фильм Балканский рубеж через торрент бесплантно в хорошем качестве Описание: Югославия. 1999 год. Российская спецгруппа получает приказ взять под контроль аэродром Слатина в Косово и удерживать его до ... 8.1 10 19
Торрент: Зарегистрирован [2019-04-04 14:51] · скачан: 219 раз
Статус: √ проверено
Размер: 4.13 GB
Как cкачать? Как скачать Балканский рубеж через торрент | qTorrent

% Раздел Тема Автор DL S | L
Наши фильмы (HD, WEB-DL 720p, 1080p) [ 5.19 GB ] Балканский рубеж [2019 WEB-DL 1080p] bober100 Скачать
70 | 2
Наши новые фильмы 2018-2019 [ 2.5 GB ] Балканский рубеж [2019 WEB-DLRip-AVC] - ExKinoRay Enigma2010 Скачать
213 | 4
Наши новые фильмы 2018-2019 [ 2.51 GB ] Балканский рубеж [2019 WEB-DLRip-AVC] bober100 Скачать
28 | 0
Наши новые фильмы 2018-2019 [ 2.06 GB ] Балканский рубеж [2019 WEB-DLRip] bober100 Скачать
31 | 0
Наши фильмы (HD, WEB-DL 720p, 1080p) [ 4.64 GB ] Балканский рубеж [2019 WEB-DL 720p] bober100 Скачать
10 | 0


>> Регистрируемся здесь <<






Отзывы и комментарии о схеме читаем и пишем здесь: ---> Отзывы и комментарии о схеме

Новые благодарочки в телеграм довольных пользователей:
скриншот   скриншот   скриншот   скриншот   скриншот

31-03-2019 14:41 Балканский рубеж Скачать торрент  

"Группа вынуждена принять неравный бой с террористами" - я так понимаю это с российскими миротворцами? piratbit.org



31-03-2019 15:21 Балканский рубеж Скачать торрент  

хрень как обычно, стандартное !!!piratbit.org



01-04-2019 16:50 Балканский рубеж Скачать торрент  

ded 4ernomor писал(а):

rokki1970 писал(а):

"Группа вынуждена принять неравный бой с террористами" - я так понимаю это с российскими миротворцами?

Террористы это заокеанский хозяин колонии 404.

давно устарели сведения. Террористы - это так называемые "российские" миротворцы. Куда не влезут, везде заборы и террор начинается.piratbit.org



02-04-2019 11:24 Балканский рубеж Скачать торрент  

Копатели морей, беснуются!piratbit.org



03-04-2019 18:41 Балканский рубеж Скачать торрент  

фильм -выше среднего,особенно если снят на Родине.piratbit.org



04-04-2019 16:02 Балканский рубеж Скачать торрент  

DeN72 писал(а):

Подождём качества. Всех американских подстилок посылаю на XUY!!! Гореть вам в аду ublydki!!!!

piratbit.org



04-04-2019 17:51 Балканский рубеж Скачать торрент  

kontak писал(а):

DeN72 писал(а):

Подождём качества. Всех американских подстилок посылаю на XUY!!! Гореть вам в аду ublydki!!!!


респект!piratbit.org



24-04-2019 12:43 Балканский рубеж Скачать торрент  

    Дорогой пользователь! Огромная просьба, поблагодарите релизера, оцените раздачу и оставьте свои комментарий, если Вы скачали Балканский рубеж через торрент бесплатно! Внесите свою лепту в развитие PiratBit!
    Комментировать посты могут только пользователи прошедшие не сложную регистрацию
    Показать сообщения:    

    Балканский рубеж через торрент
    Скачать бесплатно Балканский рубеж
    Балканский рубеж скачать торрент
    Балканский рубеж смотреть онлайн
    Cкачать фильм Балканский рубеж бесплатно
    Балканский рубеж скачать торрент в хорошем качестве
    Балканский рубеж смотреть онлайн бесплатно в хорошем качестве


    Вы не можете начинать темы
    Вы не можете отвечать на сообщения
    Вы не можете редактировать свои сообщения
    Вы не можете удалять свои сообщения
    Вы не можете голосовать в опросах
    Вы не можете прикреплять файлы к сообщениям
    Вы можете скачивать файлы