Доктор Стрэндж

Лицензия

Добыча

MVO

Дом дракона

1 сезон

Тор

Лицензия

Мэверик

Лицензия

Там, где раки поют

MVO

Властелин колец

1 сезон

Ultimate

pack

Рекомендуем

30

Repack

ВАЖНО

ВАЖНО

Ghostwire

RePack

jed

RePack

nioh2

RePack

RDR2

RePack

NEED FOR SPEED™ PAYBACK

RePack

скачать торрент

Кинопоиск HD

Острые козырьки 6 сезон

6 сезон

FAR CRY 6

RePack

скачать торрент

Лицензия

скачать торрент

MVO

1

1 сезон

скачать торрент

1 сезон

скачать торрент

Лицензия

  

Знакомьтесь, Балуев! (Виктор Комиссаржевский) [1963, СССР, драма, SATRip-AVC от AVP Studio]

Знакомьтесь, Балуев! через торрент piratbit.org

Размер: 744 MB | Добавлен: 3 года 5 мес. назад | Торрент скачан:14 раз
Смотреть онлайн Знакомьтесь, Балуев! | Скачать   

06-04-2019 08:14 Знакомьтесь, Балуев! Скачать торрент  

Знакомьтесь, Балуев!
Страна: СССР
Производство: Ленфильм

Жанр: драма
Год выпуска: 1963
Продолжительность: 01:35:46

Перевод: Не требуется
Cубтитры: нет
Оригинальная аудиодорожка: русский

Режиссер: Виктор Комиссаржевский

В ролях:
Иван Переверзев, Нина Ургант, Станислав Соколов, Светлана Дик, Павел Морозенко, Зинаида Кириенко, Анатолий Ромашин, Нелли Корнева, Павел Панков, Сергей Плотников, Сергей Блинников, Пантелеймон Крымов, Игорь Косухин, Аркадий Вовси...
Об актёрах подробней

Описание:
По одноименному роману Вадима Кожевникова.
О строителях газопроводной трассы, руководитель которой — Павел Гаврилович Балуев (москвич, бывающий дома только проездом), человек, обладающий лучшими качествами людей своего поколения.

Исходник: DVB
Качество видео: SATRip-AVC
Формат видео: MKV

Видео: 696->746x404 (1,85:1), 25,000 кадров/сек, H264 ~ 893 kbps avg, 0.127 bit/pixel
Аудио: 48 kHz, Dolby Digital AC3 2.0, 192 kbps

Раздача от:
Общее
Полное имя : Znakomtes,Baluev!1963.SATRip-AVC_[New-team]_by_AVP_Studio.mkv
Формат : Matroska
Версия формата : Version 2
Размер файла : 744 Мбайт
Продолжительность : 1 ч. 35 м.
Общий поток : 1087 Кбит/сек
Дата кодирования : UTC 2019-04-01 22:49:39
Программа кодирования : mkvmerge v6.1.0 ('Old Devil') built on Mar 4 2013 09:10:42
Библиотека кодирования : libebml v1.3.0 + libmatroska v1.4.0

Видео
Идентификатор : 1
Формат : AVC
Формат/Информация : Advanced Video Codec
Профиль формата : High@L4.1
Настройки формата : CABAC / 10 Ref Frames
Параметр CABAC формата : Да
Параметр RefFrames формата : 10 кадров
Идентификатор кодека : V_MPEG4/ISO/AVC
Продолжительность : 1 ч. 35 м.
Битрейт : 893 Кбит/сек
Ширина : 696 пикселей
Высота : 404 пикселя
Соотношение сторон : 1,85:1
Соотношение сторон в оригинале : 1,85:1
Режим частоты кадров : Постоянный
Частота кадров : 25,000 кадров/сек
Цветовое пространство : YUV
Субдискретизация насыщенности : 4:2:0
Битовая глубина : 8 бит
Тип развёртки : Прогрессивная
Бит/(Пиксели*Кадры) : 0.127
Размер потока : 598 Мбайт (80%)
Библиотека кодирования : x264 core 157 r2935 545de2f
Настройки программы : cabac=1 / ref=10 / deblock=1:-2:-1 / analyse=0x3:0x113 / me=umh / subme=10 / psy=1 / psy_rd=1.00:0.00 / mixed_ref=1 / me_range=32 / chroma_me=1 / trellis=2 / 8x8dct=1 / cqm=0 / deadzone=21,11 / fast_pskip=1 / chroma_qp_offset=-2 / threads=6 / lookahead_threads=1 / sliced_threads=0 / nr=0 / decimate=0 / interlaced=0 / bluray_compat=0 / constrained_intra=0 / bframes=8 / b_pyramid=2 / b_adapt=2 / b_bias=0 / direct=3 / weightb=1 / open_gop=0 / weightp=2 / keyint=250 / keyint_min=25 / scenecut=40 / intra_refresh=0 / rc=2pass / mbtree=0 / bitrate=893 / ratetol=1.0 / qcomp=0.60 / qpmin=0 / qpmax=69 / qpstep=4 / cplxblur=20.0 / qblur=0.5 / ip_ratio=1.40 / pb_ratio=1.30 / aq=1:1.00
Default : Да
Forced : Нет

Аудио
Идентификатор : 2
Формат : AC-3
Формат/Информация : Audio Coding 3
Коммерческое название : Dolby Digital
Идентификатор кодека : A_AC3
Продолжительность : 1 ч. 35 м.
Вид битрейта : Постоянный
Битрейт : 192 Кбит/сек
Каналы : 2 канала
Channel layout : L R
Частота : 48,0 КГц
Частота кадров : 31,250 кадров/сек (1536 SPF)
Битовая глубина : 16 бит
Метод сжатия : С потерями
Размер потока : 132 Мбайт (18%)
Default : Да
Forced : Нет



Скачать Знакомьтесь, Балуев! через торрент http://picplus.ru/img/1904/06/4f48f2b3.png Скачать, смотреть онлайн Знакомьтесь, Балуев! бесплантно в хорошем качестве Описание:По одноименному роману Вадима Кожевникова.О строителях газопроводной трассы, руководитель которой — Павел Гаврилович Балуев ... 5 10 1
Торрент: Зарегистрирован [2019-04-06 08:14] · скачан: 14 раз
Статус: √ проверено
Размер: 744 MB
Как cкачать? Как скачать Знакомьтесь, Балуев! через торрент | UTorrent

% Раздел Тема Автор DL S | L
Кино СССР [ 745 MB ] Знакомьтесь, Балуев! | | SATRip от AVP Studio AVP Studio Скачать
1 | 0

28-11-2019 20:33  

Отключить вcю реклaмy на сайте

07-04-2019 09:05 Знакомьтесь, Балуев! Скачать торрент  

походу неинтересный фильм ...



    Дорогой пользователь! Огромная просьба, поблагодарите релизера, оцените раздачу и оставьте свои комментарий, если Вы скачали Знакомьтесь, Балуев! через торрент бесплатно!!
    Комментировать посты могут только пользователи прошедшие не сложную регистрацию
    Показать сообщения:    


    Знакомьтесь, Балуев! через торрент
    Скачать бесплатно Знакомьтесь, Балуев!
    Знакомьтесь, Балуев! скачать торрент
    Знакомьтесь, Балуев! смотреть онлайн
    Cкачать фильм Знакомьтесь, Балуев! бесплатно
    Знакомьтесь, Балуев! скачать торрент в хорошем качестве
    Знакомьтесь, Балуев! смотреть онлайн бесплатно в хорошем качестве
    Вы не можете начинать темы
    Вы не можете отвечать на сообщения
    Вы не можете редактировать свои сообщения
    Вы не можете удалять свои сообщения
    Вы не можете голосовать в опросах
    Вы не можете прикреплять файлы к сообщениям
    Вы можете скачивать файлы