Мега распродажа FORZA HORIZON 4 ULTIMATE+ВСЕ DLC+ОНЛАЙН всего за 499р. 349 руб. (супер цена). Внимание количество ограничено!!!

iTunes

1+1

iTunes

мы

iTunes

1

iTunes

Чернобыль

1 сезон

Ральф против интернета

Лицензия

ПШазам

Лицензия

Игра престолов

Лицензия

30
pack

ВАЖНО

!!Акция!!

Alien_RageХит недели

RePack

Resident Evil 21

ИГРА 18+

pack

RePack

Metro:Exodus

!!Акция!!

Alien_Rage

RePack

fifa19

RePack

Assassins Creed: Odyssey

RePack

NEED FOR SPEED™ PAYBACK

3 сезон

9 сезон

Бесстыжие 9 сезон

Все сериалы

все сериалы на PB.wtf

RePack

FAR CRY 5
Ребята, катастрофически не хватает 7730р. для оплаты серверов за ИЮЛЬ (всвязи с блокировками трафик упал в 3 раза), 1-2р., выручайте.
  

Как приручить дракона 3 / How to Train Your Dragon: The Hidden World (Дин ДеБлуа) [2019, мультфильм, фэнтези, боевик, комедия, приключения, семейный, WEB-DL 1080p] DUB [Line] piratbit.org

Как приручить дракона 3 через торрент piratbit.org

Раздают: 15 [ 17 KB/s ]
Размер: 3.58 GB | Добавлен: 4 мес. 12 д. назад | Торрент скачан:1277 раз
Скачать  

06-04-2019 16:30 Как приручить дракона 3 Скачать торрент  

Как приручить дракона 3 / How to Train Your Dragon: The Hidden World
Год выпуска: 2019
Страна: США
Жанр: мультфильм, фэнтези, боевик, комедия, приключения, семейный
Продолжительность: 01:44:26
Перевод: Дублированный | Line
Субтитры: отсутствуют

Режиссер: Дин ДеБлуа

rating


В ролях:

Кейт Бланшетт, Джерард Батлер, Джона Хилл, Кит Харингтон, Кристен Уиг, Джей Барушель, Кристофер Минц-Плассе, Америка Феррера, Оулавюр Дарри Оулафссон, Ф. Мюррэй Абрахам

Описание:

Когда-то викинги жили в гармонии с драконами. В те времена они делили радость, горе... и последние штаны. Казалось, что так будет всегда, но появление загадочной Дневной Фурии изменило жизнь острова. И теперь Иккинг и Беззубик столкнутся с безжалостным охотником на драконов, жаждущим уничтожить все, что им дорого.

Качество: WEB-DL 1080p
Формат: MKV

Видео: AVC, 1920x816 (16:9), 23.976 fps, ~4521 Kbps
Аудио: AC3, 6 ch, 384 kbps (HandMade)
скриншот  скриншот  скриншот  скриншот  

General
Unique ID : 247664035329696523531876579870590475136 (0xBA525BB19D2D0EC68AF44C5C21199B80)
Complete name : C:UsersДзамболатDownloadsHow to Train Your Dragon 3.mkv
Format : Matroska
Format version : Version 4 / Version 2
File size : 3.58 GiB
Duration : 1 h 44 min
Overall bit rate : 4 905 kb/s
Movie name : How to Train Your Dragon The Hidden World 2019 from селезень
Encoded date : UTC 2019-04-06 14:25:54
Writing application : mkvmerge v24.0.0 ('Beyond The Pale') 64-bit
Writing library : libebml v1.3.6 + libmatroska v1.4.9

Video
ID : 1
Format : AVC
Format/Info : Advanced Video Codec
Format profile : High@L4
Format settings : CABAC / 5 Ref Frames
Format settings, CABAC : Yes
Format settings, ReFrames : 5 frames
Codec ID : V_MPEG4/ISO/AVC
Duration : 1 h 44 min
Bit rate : 4 521 kb/s
Width : 1 920 pixels
Height : 816 pixels
Display aspect ratio : 2.35:1
Frame rate mode : Constant
Frame rate : 23.976 FPS
Color space : YUV
Chroma subsampling : 4:2:0
Bit depth : 8 bits
Scan type : Progressive
Bits/(Pixel*Frame) : 0.120
Stream size : 3.30 GiB (92%)
Language : English
Default : Yes
Forced : No
Color range : Limited
Color primaries : BT.709
Transfer characteristics : BT.709
Matrix coefficients : BT.709

Audio
ID : 2
Format : AC-3
Format/Info : Audio Coding 3
Commercial name : Dolby Digital
Codec ID : A_AC3
Duration : 1 h 44 min
Bit rate mode : Constant
Bit rate : 384 kb/s
Channel(s) : 6 channels
Channel layout : L R C LFE Ls Rs
Sampling rate : 48.0 kHz
Frame rate : 31.250 FPS (1536 SPF)
Bit depth : 16 bits
Compression mode : Lossy
Stream size : 286 MiB (8%)
Service kind : Complete Main
Default : Yes
Forced : No

piratbit.org



Скачать Как приручить дракона 3 через торрент http://img14.lostpic.net/2019/04/06/feec4f011bb3b55f40ae24624f9b6f6b.png Скачать фильм Как приручить дракона 3 через торрент бесплантно в хорошем качестве Описание: Когда-то викинги жили в гармонии с драконами. В те времена они делили радость, горе... и последние штаны. Казалось, что так будет ... 9.6 10 26
Info! Золотая раздача, скачанное не засчитывается.
Торрент: Зарегистрирован [2019-04-06 16:30] · скачан: 1 277 раз
Статус: T временная
Размер: 3.58 GB
Как cкачать? Как скачать Как приручить дракона 3 через торрент | qTorrent

% Раздел Тема Автор DL S | L
Иностранные мультфильмы [ 744 MB ] Как приручить дракона 3 / How to Train Your Dragon: The Hidden World [2019 мультфильм HDRip] DUB [] bober100 Скачать
3 | 0
Мультфильмы (48-60 fps) [ 20.88 GB ] Как приручить дракона 3 / How to Train Your Dragon: The Hidden World [2019 мультфильм BDRip 1080p 60 fps] sheker187 Скачать
1 | 0
Ultra HD (UHD: 2K, 4K, 8K) [ 88.44 GB ] Как приручить дракона 3 / How to Train Your Dragon: The Hidden World [2019 мультфильм UHD Blu-Ray EUR 2160p] DUB [] bober100 Скачать
2 | 0
Иностранные мультфильмы [ 2.15 GB ] Как приручить дракона 3 / How to Train Your Dragon: The Hidden World [2019 мультфильм BDRip-AVC] DUB [] +MVO [HDRezka Studio] bober100 Скачать
8 | 0
Зарубежные Мультфильмы (BDRip 1080p, 720p, Blu-ray, BD-Remux) [ 8.29 GB ] Как приручить дракона 3 / How to Train Your Dragon: The Hidden World [2019 мультфильм BDRip 1080p] DUB [] +MVO [HDRezka Studio] bober100 Скачать
6 | 0
Зарубежные Мультфильмы (BDRip 1080p, 720p, Blu-ray, BD-Remux) [ 5.06 GB ] Как приручить дракона 3 / How to Train Your Dragon: The Hidden World [2019 мультфильм BDRip 720p] DUB [] +MVO [HDRezka Studio] bober100 Скачать
7 | 0
Иностранные мультфильмы [ 1.46 GB ] Как приручить дракона 3 / How to Train Your Dragon: The Hidden World [2019 мультфильм BDRip] DUB [ Blu-Ray 4K] bober100 Скачать
6 | 0


>> Регистрируемся здесь <<






Отзывы и комментарии о схеме читаем и пишем здесь: ---> Отзывы и комментарии о схеме

Новые благодарочки в телеграм довольных пользователей:
скриншот   скриншот   скриншот   скриншот   скриншот

17-04-2019 21:35 Как приручить дракона 3 Скачать торрент  

    Дорогой пользователь! Огромная просьба, поблагодарите релизера, оцените раздачу и оставьте свои комментарий, если Вы скачали Как приручить дракона 3 через торрент бесплатно! Внесите свою лепту в развитие PiratBit!
    Комментировать посты могут только пользователи прошедшие не сложную регистрацию
    Показать сообщения:    

    Как приручить дракона 3 через торрент
    Скачать бесплатно Как приручить дракона 3
    Как приручить дракона 3 скачать торрент
    Как приручить дракона 3 смотреть онлайн
    Cкачать фильм Как приручить дракона 3 бесплатно
    Как приручить дракона 3 скачать торрент в хорошем качестве
    Как приручить дракона 3 смотреть онлайн бесплатно в хорошем качестве


    Вы не можете начинать темы
    Вы не можете отвечать на сообщения
    Вы не можете редактировать свои сообщения
    Вы не можете удалять свои сообщения
    Вы не можете голосовать в опросах
    Вы не можете прикреплять файлы к сообщениям
    Вы можете скачивать файлы