MEGA SALE -50% FORZA HORIZON 4 ULTIMATE+ВСЕ DLC+ОНЛАЙН всего за 599р. 299 руб. (супер цена). Внимание количество ограничено!!!

iTunes

1+1

iTunes

мы

iTunes

1

iTunes

Чернобыль

iTunes

Ральф против интернета

Лицензия

ПШазам

Лицензия

Игра престолов

Лицензия

30
pack

ВАЖНО

!!Акция!!

Alien_RageХит недели

RePack

Resident Evil 21

ИГРА 18+

pack

RePack

Metro:Exodus

!!Акция!!

Alien_Rage

RePack

fifa19

RePack

Assassins Creed: Odyssey

RePack

NEED FOR SPEED™ PAYBACK

3 сезон

9 сезон

Бесстыжие 9 сезон

Все сериалы

все сериалы на PB.wtf

RePack

FAR CRY 5
Ребята, катастрофически не хватает 7730р. для оплаты серверов за АВГУСТ (всвязи с блокировками трафик упал в 3 раза), 1-2р., выручайте.
  

Воин / Warrior / Сезон: 1 / Серии: 1-10 из 10 (Лони Перистер, Лин Одинг, Дэвид Петрарка, Асаф Бернштейн, Кевин Танчароэн) [2019, Боевик, драма, история, WEB-DL 720p] [MVO] (Кириллица) piratbit.org

Воин через торрент piratbit.org

Размер: 11.92 GB | Добавлен: 3 мес. 9 д. назад | Торрент скачан:59 раз
Скачать  

06-04-2019 17:34 Воин Скачать торрент  

Воин / Warrior
Информация о сериале

Год выпуска: 2019
Жанр: Боевик, драма, история
Страна: США
Продолжительность: 1 x ~ 01:00:00
Перевод: Профессиональный (многоголосый) *Кириллица по заказу Amedia*
Субтитры: Русские (Forced), английские (SDH)

Режиссер: Лони Перистер, Лин Одинг, Дэвид Петрарка, Асаф Бернштейн, Кевин Танчароэн

В ролях: Джейсон Дж. Тобин, Эндрю Кодзи, Оливия Ченг, Киран Бью, Дайян Доан, Дин Джаггер III, Лэнгли Кирквуд, Перри Юнг, Райан Крюгер, Рич Тинг

О фильме: В 1890-х годах город Сан-Франциско страдал от коррупции и мафии. В китайском квартале Сан-Франциско междоусобные войны достигли особого размаха. В это неспокойное время в город из Китая прибывает молодой мастер восточных единоборств А Саме. Молодой человек тут же оказывается втянутым в кровавые разборки между двумя опасными соперничающими друг с другом группировками Тонг в Чайнатауне. А Саме подвергает себя смертельной опасности, после того как план мести, который он готовил не один год, становится известен его врагам.

rating
Релиз - скриншот  

скриншот  

Файл
Кодек: x264 (AVC)
Качество: WEB-DL 720p
Видео: AVC, 1280x720 (16:9), 23.976 fps, ~2488 kbps
Звук 1: Russian: AC3 5.1, 48 kHz, 640 kbps - Кириллица по заказу Amedia
Звук 2: English: E-AC3 5.1, 48 kHz, 640 kbps
скриншот  скриншот  скриншот  
General
Unique ID : 309440048196737130785269656888417141770 (0xE8CBFC4883876D3678BEB90C5D3B440A)
Complete name : E:\Warrior.2019.S01.720p.AMZN.WEB-DL.DDP5.1.H.264-EniaHD\Warrior.2019.S01E01.The.Itchy.Onion.720p.AMZN.WEB-DL.DDP5.1.H.264-NTb (1).mkv
Format : Matroska
Format version : Version 4 / Version 2
File size : 1.60 GiB
Duration : 1 h 0 min
Overall bit rate : 3 770 kb/s
Movie name : Warrior.2019.S01E01.The.Itchy.Onion.720p.AMZN.WEB-DL.DDP5.1.H.264-EniaHD
Encoded date : UTC 2019-04-06 16:06:50
Writing application : mkvmerge v32.0.0 ('Astral Progressions') 64-bit
Writing library : libebml v1.3.7 + libmatroska v1.5.0

Video
ID : 1
Format : AVC
Format/Info : Advanced Video Codec
Format profile : High@L3.1
Format settings : CABAC / 4 Ref Frames
Format settings, CABAC : Yes
Format settings, RefFrames : 4 frames
Codec ID : V_MPEG4/ISO/AVC
Duration : 1 h 0 min
Bit rate mode : Constant
Bit rate : 2 415 kb/s
Nominal bit rate : 6 000 kb/s
Width : 1 280 pixels
Height : 720 pixels
Display aspect ratio : 16:9
Frame rate mode : Constant
Frame rate : 23.976 (24000/1001) FPS
Color space : YUV
Chroma subsampling : 4:2:0
Bit depth : 8 bits
Scan type : Progressive
Bits/(Pixel*Frame) : 0.109
Stream size : 1.03 GiB (64%)
Default : Yes
Forced : No
Color range : Limited
Color primaries : BT.709
Transfer characteristics : BT.709
Matrix coefficients : BT.709

Audio #1
ID : 2
Format : AC-3
Format/Info : Audio Coding 3
Format settings, Endianness : Big
Codec ID : A_AC3
Duration : 1 h 0 min
Bit rate mode : Constant
Bit rate : 640 kb/s
Channel(s) : 6 channels
Channel positions : Front: L C R, Side: L R, LFE
Sampling rate : 48.0 kHz
Frame rate : 31.250 FPS (1536 SPF)
Bit depth : 16 bits
Compression mode : Lossy
Stream size : 279 MiB (17%)
Title : Cyrillica
Language : Russian
Service kind : Complete Main
Default : Yes
Forced : No

Audio #2
ID : 3
Format : E-AC-3
Format/Info : Enhanced Audio Coding 3
Format settings, Endianness : Big
Codec ID : A_EAC3
Duration : 1 h 0 min
Bit rate mode : Constant
Bit rate : 640 kb/s
Channel(s) : 6 channels
Channel positions : Front: L C R, Side: L R, LFE
Sampling rate : 48.0 kHz
Frame rate : 187.500 FPS (256 SPF)
Compression mode : Lossy
Delay relative to video : 20 ms
Stream size : 279 MiB (17%)
Language : English
Service kind : Complete Main
Default : No
Forced : No

Text #1
ID : 4
Format : UTF-8
Codec ID : S_TEXT/UTF8
Codec ID/Info : UTF-8 Plain Text
Title : Forced
Language : Russian
Default : Yes
Forced : Yes

Text #2
ID : 5
Format : UTF-8
Codec ID : S_TEXT/UTF8
Codec ID/Info : UTF-8 Plain Text
Title : SDH
Language : English
Default : No
Forced : No
Внимание! Раздача ведётся путём добавления новых серий; при каждом добавлении создаётся новый торрент. Чтобы начать докачку новой серии, пользователям необходимо сделать следующее:
(1) остановить скачивание,
(2) удалить старый торрент у себя из клиента (старые серии удалять не надо),
(3) скачать новый торрент и запустить его у себя в клиенте вместо старого, при этом указать клиенту путь в старую папку куда и должно происходить скачивание новых серий.
Ваш клиент при этом должен произвести хеширование (проверку) старой папки (если не производит сам - помогите ему сделать это), и будет докачивать только те серии которых у вас ещё нет. Старые серии при этом не удаляются, а продолжают раздаваться!
Eсли вы уже удалили старые серии, то предотвратить повторную закачку старых серий можно, отжав галочку в соответствующих местах при запуске нового торрента. По возможности, желательно не удалять старые серии как можно дольше чтобы релизёр не столько продолжал раздавать старые серии, а смог сконцентрироваться на новых.
piratbit.org



Скачать Воин через торрент https://i109.fastpic.ru/big/2019/0406/20/d8082b6df9d9ef95b071c9b00ee1e920.jpg Скачать фильм Воин через торрент бесплантно в хорошем качестве О фильме: В 1890-х годах город Сан-Франциско страдал от коррупции и мафии. В китайском квартале Сан-Франциско междоусобные войны достигли ... 8.8 10 13
Торрент: Зарегистрирован [2019-06-09 07:01] · скачан: 59 раз
Статус: √ проверено
Размер: 11.92 GB
Как cкачать? Как скачать Воин через торрент | qTorrent

% Раздел Тема Автор DL S | L
Зарубежные сериалы [ 23.1 GB ] Воин / Warrior / Сезон: 1 / Серии: 1-10 из 10 [2019 история WEB-DL 1080p] MVO [TVShows] bober100 Скачать
1 | 0
Зарубежные сериалы [ 12.6 GB ] Воин / Warrior / Сезон: 1 / Серии: 1-10 из 10 [2019 история WEB-DL 720p] MVO [LostFilm] bober100 Скачать
2 | 0
Зарубежные сериалы [ 6.95 GB ] Воин / Warrior / Сезон: 1 / Серии: 1-10 из 10 [2019 история WEB-DLRip] MVO [AlexFilm] bober100 Скачать
1 | 0
Зарубежные сериалы [ 24.99 GB ] Воин / Warrior / Сезон: 1 / Серии: 1-10 из 10 [2019 история WEB-DL 1080p] MVO [Lostfilm] bober100 Скачать
1 | 0
Зарубежные сериалы [ 10.5 GB ] Воин / Warrior / Сезон: 1 / Серии: 1-10 из 10 [2019 история WEB-DL 720p] MVO [AlexFilm] bober100 Скачать
1 | 0
Зарубежные сериалы [ 6.78 GB ] Воин / Warrior / Сезон: 1 / Серии: 1-10 из 10 [2019 история WEB-DLRip] MVO [Кириллица] bober100 Скачать
1 | 0
Зарубежные сериалы [ 9.26 GB ] Воин / Warrior / Сезон: 1 / Серии: 1-10 из 10 [2019 история WEB-DLRip] MVO [LostFilm] bober100 Скачать
2 | 0


Последний раз редактировалось: killermax2013 (2019-06-01 11:44), всего редактировалось 5 раз(а)


>> Регистрируемся здесь <<






Отзывы и комментарии о схеме читаем и пишем здесь: ---> Отзывы и комментарии о схеме

Новые благодарочки в телеграм довольных пользователей:
скриншот   скриншот   скриншот   скриншот   скриншот

27-04-2019 13:45 Воин Скачать торрент  

Как сериал?piratbit.org



05-05-2019 14:52 Воин Скачать торрент  

Sanekzade1989 писал(а):

Как сериал?

Отличный сериал с красиво поставленными боямиpiratbit.org



09-06-2019 08:21 Воин Скачать торрент  

Думал в 10й серии будет развязка.piratbit.org



    Дорогой пользователь! Огромная просьба, поблагодарите релизера, оцените раздачу и оставьте свои комментарий, если Вы скачали Воин через торрент бесплатно! Внесите свою лепту в развитие PiratBit!
    Комментировать посты могут только пользователи прошедшие не сложную регистрацию
    Показать сообщения:    

    Воин через торрент
    Скачать бесплатно Воин
    Воин скачать торрент
    Воин смотреть онлайн
    Cкачать фильм Воин бесплатно
    Воин скачать торрент в хорошем качестве
    Воин смотреть онлайн бесплатно в хорошем качестве


    Вы не можете начинать темы
    Вы не можете отвечать на сообщения
    Вы не можете редактировать свои сообщения
    Вы не можете удалять свои сообщения
    Вы не можете голосовать в опросах
    Вы не можете прикреплять файлы к сообщениям
    Вы можете скачивать файлы