MEGA SALE -50% FORZA HORIZON 4 ULTIMATE+ВСЕ DLC+ОНЛАЙН всего за 599р. 299 руб. (супер цена). Внимание количество ограничено!!!

iTunes

1+1

iTunes

мы

iTunes

1

iTunes

Чернобыль

1 сезон

Ральф против интернета

Лицензия

ПШазам

Лицензия

Игра престолов

Лицензия

30
pack

ВАЖНО

!!Акция!!

Alien_RageХит недели

RePack

Resident Evil 21

ИГРА 18+

pack

RePack

Metro:Exodus

!!Акция!!

Alien_Rage

RePack

fifa19

RePack

Assassins Creed: Odyssey

RePack

NEED FOR SPEED™ PAYBACK

3 сезон

9 сезон

Бесстыжие 9 сезон

Все сериалы

все сериалы на PB.wtf

RePack

FAR CRY 5
Ребята, катастрофически не хватает 7730р. для оплаты серверов за ИЮЛЬ (всвязи с блокировками трафик упал в 3 раза), 1-2р., выручайте.
  

Убивая Еву / Killing Eve / Сезон: 2 / Серии: 1-8 из 8 (Джон Ист) [2019, триллер, драма, WEB-DLRip] [MVO] (TVShows) piratbit.org

Убивая Еву через торрент piratbit.org

Раздают: 1 [ 0 KB/s ]
Размер: 5.66 GB | Добавлен: 2 мес. 22 д. назад | Торрент скачан:34 раза
Скачать  

06-04-2019 19:56 Убивая Еву Скачать торрент  

Убивая Еву / Killing Eve Год выпуска: 2019
Страна: США
Жанр: триллер, драма
Продолжительность: ~00:44:00
Перевод: Профессиональный (многоголосый закадровый) *TVShows*

Режиссёр: Джон Ист, Дэймон Томас, Гарри Брэдбир

В ролях: Сандра О, Джоди Комер, Фиона Шоу, Ким Бодния, Оуэн МакДоннел, Кирби Хауэлл-Баптисте, Шон Делани, Даррен Бойд, Хелена Холмс, Дэвид Агранов

Описание: Проект, в основу которого легли романы Люка Дженнингса, повествует о наёмной убийце-психопатке Вилланелле и охотящейся на неё Еве — сотруднице службы безопасности, давно мечтавшей поменять бумажную работу на оперативную. Так начинается смертельно опасная, полная юмора и экшена игра в кошки-мышки между элегантной, талантливой убийцей и смышлёной оперативницей — обе женщины равно умны и одинаково одержимы друг другом.



Качество: WEB-DLRip
Формат: AVI
Видео: 720x400 (1.80:1), 25 fps, XviD build 73 ~2000 kbps avg, 0.28 bit/pixel
Аудио: 48 kHz, AC3 Dolby Digital, 3/2 (L,C,R,l,r) + LFE ch, ~384 kbps
Рип: Ruddle
Реклама отсутствует

Код:

Общее
Полное имя                               : D:\Killing Eve Season 2 WEB-DLRip\Killing.Eve.s02e01.WEB-DLRip.RGzsRutracker.avi
Формат                                   : AVI
Формат/Информация                        : Audio Video Interleave
Размер файла                             : 719 Мбайт
Продолжительность                        : 41 м. 56 с.
Общий поток                              : 2398 Кбит/сек
Программа кодирования                    : VirtualDubMod 1.5.10.3 | www.virtualdub-fr.org || (build 2550/release)
Библиотека кодирования                   : VirtualDubMod build 2550/release

Видео
Идентификатор                            : 0
Формат                                   : MPEG-4 Visual
Профиль формата                          : Advanced Simple@L5
Настройки формата                        : BVOP2
Параметр BVOP формата                    : 2
Параметр QPel формата                    : Нет
Параметр GMC формата                     : Без точки перехода
Параметр матрицы формата                 : Default (MPEG)
Идентификатор кодека                     : XVID
Идентификатор кодека/Подсказка           : XviD
Продолжительность                        : 41 м. 56 с.
Битрейт                                  : 2004 Кбит/сек
Ширина                                   : 720 пикселей
Высота                                   : 400 пикселей
Соотношение сторон                       : 16:9
Частота кадров                           : 25,000 кадров/сек
Цветовое пространство                    : YUV
Субдискретизация насыщенности            : 4:2:0
Битовая глубина                          : 8 бит
Тип развёртки                            : Прогрессивная
Метод сжатия                             : С потерями
Бит/(Пиксели*Кадры)                      : 0.278
Размер потока                            : 601 Мбайт (84%)
Библиотека кодирования                   : XviD 73

Аудио
Идентификатор                            : 1
Формат                                   : AC-3
Формат/Информация                        : Audio Coding 3
Идентификатор кодека                     : 2000
Продолжительность                        : 41 м. 56 с.
Вид битрейта                             : Постоянный
Битрейт                                  : 384 Кбит/сек
Каналы                                   : 6 каналов
Расположение каналов                     : Front: L C R, Side: L R, LFE
Частота                                  : 48,0 КГц
Частота кадров                           : 31,250 кадров/сек (1536 SPF)
Битовая глубина                          : 16 бит
Метод сжатия                             : С потерями
Размер потока                            : 115 Мбайт (16%)
Выравнивание                             : Разделение по промежуткам
Продолжительность промежутка             : 40  мс. (1,00 видеокадр)
Время предзагрузки промежутка            : 500  мс.
ServiceKind/String                       : Complete Main

скриншот  скриншот  скриншот  
piratbit.org



Скачать Убивая Еву через торрент https://i110.fastpic.ru/big/2019/0407/ce/bc9f655ac003128493564121e6a28dce.jpg Скачать фильм Убивая Еву через торрент бесплантно в хорошем качестве Описание: Проект, в основу которого легли романы Люка Дженнингса, повествует о наёмной убийце-психопатке Вилланелле и охотящейся на неё Еве ... 9.7 10 3
Торрент: Зарегистрирован [2019-05-30 17:44] · скачан: 34 раз
Статус: √ проверено
Размер: 5.66 GB
Как cкачать? Как скачать Убивая Еву через торрент | qTorrent

% Раздел Тема Автор DL S | L
Зарубежные сериалы [ 18.42 GB ] Убивая Еву / Killing Eve / Сезон: 2 / Серии: 1-8 из 8 [2019 WEB-DL 1080p] [MVO] killermax2013 Скачать
1 | 0
Зарубежные сериалы [ 4.62 GB ] Убивая Еву / Killing Eve / Сезон: 2 / Серии: 1-8 из 8 [2019 . WEB-DLRip] MVO [LostFilm] bober100 Скачать
3 | 0
Зарубежные сериалы [ 18.96 GB ] Убивая Еву / Killing Eve / Сезон: 2 / Серии: 1-8 из 8 [2019 WEB-DL 1080p] [MVO] killermax2013 Скачать
4 | 0
Зарубежные сериалы [ 4.32 GB ] Убивая Еву / Killing Eve / Сезон: 2 / Серии: 1-8 из 8 [2019 WEB-DLRip] [MVO] killermax2013 Скачать
1 | 0


>> Регистрируемся здесь <<






Отзывы и комментарии о схеме читаем и пишем здесь: ---> Отзывы и комментарии о схеме

Новые благодарочки в телеграм довольных пользователей:
скриншот   скриншот   скриншот   скриншот   скриншот
    Дорогой пользователь! Огромная просьба, поблагодарите релизера, оцените раздачу и оставьте свои комментарий, если Вы скачали Убивая Еву через торрент бесплатно! Внесите свою лепту в развитие PiratBit!
    Комментировать посты могут только пользователи прошедшие не сложную регистрацию
    Показать сообщения:    

    Убивая Еву через торрент
    Скачать бесплатно Убивая Еву
    Убивая Еву скачать торрент
    Убивая Еву смотреть онлайн
    Cкачать фильм Убивая Еву бесплатно
    Убивая Еву скачать торрент в хорошем качестве
    Убивая Еву смотреть онлайн бесплатно в хорошем качестве


    Вы не можете начинать темы
    Вы не можете отвечать на сообщения
    Вы не можете редактировать свои сообщения
    Вы не можете удалять свои сообщения
    Вы не можете голосовать в опросах
    Вы не можете прикреплять файлы к сообщениям
    Вы можете скачивать файлы