Наша группа ВК в очередной раз забанена мы уходим в Телеграм, присоединяйтесь!!!

Лицензия

30

iTunes

Как приручить дракона 3

iTunes

1

1 сезон

Чернобыль

iTunes

Снегоуборщик

iTunes

Закатать в асфальт

8 сезон

Игра престолов

iTunes

Ральф против интернета Хит недели

ИГРА 18+

pack

ВАЖНО

!!Акция!!

Alien_RageХит недели

RePack

Resident Evil 21
pack

RePack

Metro:Exodus

!!Акция!!

Alien_Rage

RePack

fifa19

RePack

Assassins Creed: Odyssey

RePack

NEED FOR SPEED™ PAYBACK

3 сезон

9 сезон

Бесстыжие 9 сезон

Все сериалы

все сериалы на PB.wtf

RePack

FAR CRY 5
Ребята, катастрофически не хватает 2730р. для оплаты серверов за АПРЕЛЬ (всвязи с блокировками трафик упал в 3 раза), 1-2р., выручайте.
  

Убивая Еву / Killing Eve / Сезон: 2 / Серии: 1-5 из 8 (Джон Ист) [2019, Триллер, WEBRip] [DVO] (KerobTV) piratbit.org

Убивая Еву через торрент piratbit.org

Раздают: 2 [ 0 KB/s ] Качают: 2 [ 0 KB/s ]
Размер: 2.42 GB | Добавлен: 16 д. назад | Торрент скачан:8 раз
Скачать  

06-04-2019 19:56 Убивая Еву Скачать торрент  

Убивая Еву / Killing Eve Год выпуска: 2019
Страна: США
Жанр: Триллер
Продолжительность: ~00:44:00
Перевод: Любительский (двухголосый) |KerobTV

Режиссёр: Джон Ист, Дэймон Томас, Гарри Брэдбир

В ролях: Сандра О, Джоди Комер, Фиона Шоу, Ким Бодния, Оуэн МакДоннел, Кирби Хауэлл-Баптисте, Шон Делани, Даррен Бойд, Хелена Холмс, Дэвид Агранов

Описание: Проект, в основу которого легли романы Люка Дженнингса, повествует о наёмной убийце-психопатке Вилланелле и охотящейся на неё Еве — сотруднице службы безопасности, давно мечтавшей поменять бумажную работу на оперативную. Так начинается смертельно опасная, полная юмора и экшена игра в кошки-мышки между элегантной, талантливой убийцей и смышлёной оперативницей — обе женщины равно умны и одинаково одержимы друг другом.



Качество: WEBRip
Формат: AVI
Видео: XviD, ~ 1483 Кбит/с, 704x394
Аудио: 48 kHz, MPEG Layer 3, 2 ch, ~128.00 kbps | Rus
General
Complete name : E:\Killing.Eve.S02.400p.Kerob\Killing.Eve.S02E01.400p.Kerob.avi
Format : AVI
Format/Info : Audio Video Interleave
File size : 499 MiB
Duration : 42 min 56 s
Overall bit rate : 1 624 kb/s
Writing application : Lavf58.20.100

Video
ID : 0
Format : MPEG-4 Visual
Format profile : Advanced Simple@L5
Format settings : BVOP1
Format settings, BVOP : 1
Format settings, QPel : No
Format settings, GMC : No warppoints
Format settings, Matrix : Default (H.263)
Codec ID : XVID
Codec ID/Hint : XviD
Duration : 42 min 56 s
Bit rate : 1 423 kb/s
Width : 704 pixels
Height : 394 pixels
Display aspect ratio : 16:9
Frame rate : 23.976 (24000/1001) FPS
Color space : YUV
Chroma subsampling : 4:2:0
Bit depth : 8 bits
Scan type : Progressive
Compression mode : Lossy
Bits/(Pixel*Frame) : 0.214
Stream size : 437 MiB (88%)
Title : Обработчик псевдонимов Apple
Writing library : XviD 67

Audio
ID : 1
Format : MPEG Audio
Format version : Version 1
Format profile : Layer 3
Format settings : Joint stereo / MS Stereo
Mode : Joint stereo
Mode extension : MS Stereo
Codec ID : 55
Codec ID/Hint : MP3
Duration : 42 min 56 s
Bit rate mode : Constant
Bit rate : 128 kb/s
Channel(s) : 2 channels
Sampling rate : 48.0 kHz
Compression mode : Lossy
Stream size : 39.3 MiB (8%)
Alignment : Aligned on interleaves
Title : Обработчик псевдонимов Apple
Writing library : LAMEЩD§( Ћ)CMFL„ђ»
скриншот  скриншот  скриншот  
Внимание! Раздача ведётся путём добавления новых серий; при каждом добавлении создаётся новый торрент. Чтобы начать докачку новой серии, пользователям необходимо сделать следующее:
(1) остановить скачивание,
(2) удалить старый торрент у себя из клиента (старые серии удалять не надо),
(3) скачать новый торрент и запустить его у себя в клиенте вместо старого, при этом указать клиенту путь в старую папку куда и должно происходить скачивание новых серий.

Ваш клиент при этом должен произвести хеширование (проверку) старой папки (если не производит сам - помогите ему сделать это), и будет докачивать только те серии которых у вас ещё нет. Старые серии при этом не удаляются, а продолжают раздаваться!

Eсли вы уже удалили старые серии, то предотвратить повторную закачку старых серий можно, отжав галочку в соответствующих местах при запуске нового торрента. По возможности, желательно не удалять старые серии как можно дольше чтобы релизёр не столько продолжал раздавать старые серии, а смог сконцентрироваться на новых.
piratbit.org



Скачать Убивая Еву через торрент https://i110.fastpic.ru/big/2019/0407/ce/bc9f655ac003128493564121e6a28dce.jpg Скачать фильм Убивая Еву через торрент бесплантно в хорошем качестве Описание: Проект, в основу которого легли романы Люка Дженнингса, повествует о наёмной убийце-психопатке Вилланелле и охотящейся на неё Еве ... 10 10 2
Торрент: Зарегистрирован [2019-05-06 11:04] · скачан: 8 раз
Статус: T временная
Размер: 2.42 GB
Как cкачать? Как скачать Убивая Еву через торрент | qTorrent

% Раздел Тема Автор DL S | L
Зарубежные сериалы [ 2.9 GB ] Убивая Еву / Killing Eve / Сезон: 2 / Серии: 1-5 из 8 [2019 . WEB-DLRip] MVO [LostFilm] bober100 Скачать
1 | 0


>> Регистрируемся здесь <<






Отзывы и комментарии о схеме читаем и пишем здесь: ---> Отзывы и комментарии о схеме

Новые благодарочки в телеграм довольных пользователей:
скриншот   скриншот   скриншот   скриншот   скриншот
    Дорогой пользователь! Огромная просьба, поблагодарите релизера, оцените раздачу и оставьте свои комментарий, если Вы скачали Убивая Еву через торрент бесплатно! Внесите свою лепту в развитие PiratBit!
    Комментировать посты могут только пользователи прошедшие не сложную регистрацию
    Показать сообщения:    

    Убивая Еву через торрент
    Скачать бесплатно Убивая Еву
    Убивая Еву скачать торрент
    Убивая Еву смотреть онлайн
    Cкачать фильм Убивая Еву бесплатно
    Убивая Еву скачать торрент в хорошем качестве
    Убивая Еву смотреть онлайн бесплатно в хорошем качестве


    Вы не можете начинать темы
    Вы не можете отвечать на сообщения
    Вы не можете редактировать свои сообщения
    Вы не можете удалять свои сообщения
    Вы не можете голосовать в опросах
    Вы не можете прикреплять файлы к сообщениям
    Вы можете скачивать файлы