ВНИМАНИЕ!!! Роскомнадзор заблокировал piratbit.org в РФ навсегда, просьба установить наш плагин который откроет доступ из РФ, для Хром, Ябраузер, Опера -> Mozilla FireFox и перейти на pb.wtf. о плагине

Лицензия

30

MVO

Как приручить дракона 3

11 сезон

1

1 сезон

гринч

iTunes

Стекло

iTunes

Клаустрофобы

8 сезон

Игра престолов

iTunes

Ральф против интернета Хит недели

ИГРА 18+

pack

ВАЖНО

!!Акция!!

Alien_RageХит недели

RePack

Resident Evil 21
pack

RePack

Metro:Exodus

!!Акция!!

Alien_Rage

RePack

fifa19

RePack

Assassins Creed: Odyssey

RePack

NEED FOR SPEED™ PAYBACK

3 сезон

9 сезон

Бесстыжие 9 сезон

Все сериалы

все сериалы на PB.wtf

RePack

FAR CRY 5
Ребята, критически не успеваем дособрать 3200р. для оплаты серверов за Март (всвязи с блокировками трафик упал в 3 раза), 1-2р., выручайте.
  

Папа, сдохни (Кирилл Соколов) [2019, комедия, TS 720p] piratbit.org

Папа, сдохни через торрент piratbit.org

Раздают: 2 [ 26 KB/s ]
Размер: 2.69 GB | Добавлен: 14 д. назад | Торрент скачан:39 раз
Скачать  

07-04-2019 11:51 Папа, сдохни Скачать торрент  

Папа, сдохни Год выпуска: 2019
Страна: Россия
Жанр: комедия
Продолжительность: 01:35:35
Перевод: Не требуется
Субтитры: отсутствуют

Режиссер: Кирилл Соколов

rating

В ролях:

Виталий Хаев, Александр Кузнецов, Евгения Крегжде, Михаил Горевой, Елена Шевченко, Игорь Грабузов, Александр Домогаров мл., Владимир Афанасьев, Владимир Кондауров, Артём Башенин

Описание:

Самый гнусный отец в мире, опер Андрей Геннадьевич, собирает у себя в квартире компанию отъявленных мерзавцев: мстительную дочь-актрису, озлобленного хулигана и обманутого мента. У каждого из них есть свои причины для мести.

Качество: TS 720p
Формат: MKV

Видео: h.264,3 647 Кбит/с, 1280x536
Аудио: Русский, (AC3, 2 ch, 384 Кбит/с)
скриншот  скриншот  скриншот  

Общее
Уникальный идентификатор : 248241618863694651100694609279997136186 (0xBAC198C2B9BA2BDE955700BD51DB4D3A)
Полное имя : D:\PapA.SdoXni.2O19.O.TS.72Op.mkv
Формат : Matroska
Версия формата : Version 2
Размер файла : 2,69 Гбайт
Продолжительность : 1 ч. 35 м.
Режим общего битрейта : Переменный
Общий поток : 4033 Кбит/сек
Дата кодирования : UTC 2019-04-07 08:41:13
Программа кодирования : mkvmerge v8.3.0 ('Over the Horizon') 64bit
Библиотека кодирования : libebml v1.3.1 + libmatroska v1.4.2

Видео
Идентификатор : 1
Формат : AVC
Формат/Информация : Advanced Video Codec
Профиль формата : High@L4.1
Параметр CABAC формата : Да
Параметр RefFrames формата : 4 кадра
Идентификатор кодека : V_MPEG4/ISO/AVC
Продолжительность : 1 ч. 35 м.
Вид битрейта : Переменный
Битрейт : 3647 Кбит/сек
Максимальный битрейт : 4000 Кбит/сек
Ширина : 1280 пикселей
Высота : 536 пикселей
Соотношение сторон : 2,40:1
Режим частоты кадров : Постоянный
Частота кадров : 23,976 (24000/1001) кадра/сек
Стандарт вещания : Component
Цветовое пространство : YUV
Субдискретизация насыщенности : 4:2:0
Битовая глубина : 8 бит
Тип развёртки : Прогрессивная
Бит/(Пиксели*Кадры) : 0.217
Размер потока : 2,38 Гбайт (88%)
Default : Да
Forced : Нет
Цветовой диапазон : Limited
Основные цвета : BT.709
Характеристики трансфера : BT.709
Коэффициенты матрицы : BT.709

Аудио
Идентификатор : 2
Формат : AC-3
Формат/Информация : Audio Coding 3
Расширение режима : CM (complete main)
Параметр Endianness формата : Big
Идентификатор кодека : A_AC3
Продолжительность : 1 ч. 35 м.
Вид битрейта : Постоянный
Битрейт : 384 Кбит/сек
Каналы : 2 канала
Расположение каналов : Front: L R
Частота : 48,0 КГц
Частота кадров : 31,250 кадров/сек (1536 spf)
Метод сжатия : С потерями
Размер потока : 263 Мбайт (10%)
Default : Да
Forced : Нет

piratbit.org



Скачать Папа, сдохни через торрент https://c.radikal.ru/c09/1904/f3/0d99824fe0a6.jpg Скачать фильм Папа, сдохни через торрент бесплантно в хорошем качестве Описание: Самый гнусный отец в мире, опер Андрей Геннадьевич, собирает у себя в квартире компанию отъявленных мерзавцев: мстительную ... 8.2 10 5
Торрент: Зарегистрирован [2019-04-07 11:51] · скачан: 39 раз
Статус: T временная
Размер: 2.69 GB
Как cкачать? Как скачать Папа, сдохни через торрент | qTorrent

% Раздел Тема Автор DL S | L
T Наши фильмы (мультфильмы) cо спонсором показа (Новинки AVI/MKV) [ 1.37 GB ] Папа сдохни [2019 TS] bober100 Скачать
4 | 0


>> Регистрируемся здесь <<






Отзывы и комментарии о схеме читаем и пишем здесь: ---> Отзывы и комментарии о схеме

Новые благодарочки в телеграм довольных пользователей:
скриншот   скриншот   скриншот   скриншот   скриншот
    Дорогой пользователь! Огромная просьба, поблагодарите релизера, оцените раздачу и оставьте свои комментарий, если Вы скачали Папа, сдохни через торрент бесплатно! Внесите свою лепту в развитие PiratBit!
    Комментировать посты могут только пользователи прошедшие не сложную регистрацию
    Показать сообщения:    

    Папа, сдохни через торрент
    Скачать бесплатно Папа, сдохни
    Папа, сдохни скачать торрент
    Папа, сдохни смотреть онлайн
    Cкачать фильм Папа, сдохни бесплатно
    Папа, сдохни скачать торрент в хорошем качестве
    Папа, сдохни смотреть онлайн бесплатно в хорошем качестве


    Вы не можете начинать темы
    Вы не можете отвечать на сообщения
    Вы не можете редактировать свои сообщения
    Вы не можете удалять свои сообщения
    Вы не можете голосовать в опросах
    Вы не можете прикреплять файлы к сообщениям
    Вы можете скачивать файлы