Достать ножи: Стеклянная луковица

MVO

Добыча

Дубляж

Уэнсдэй

1 сезон

Тор

Дубляж

13 клиническая

1 сезон

Жестокая ночь

MVO

Одни из нас

1 сезон

Deluxe

pack

Рекомендуем

30

Пиратка

ВАЖНО

ВАЖНО

Ghostwire

Пиратка

jed

RePack

nioh2

RePack

RDR2

RePack

NEED FOR SPEED™ PAYBACK

RePack

скачать торрент

Кинопоиск HD

Острые козырьки 6 сезон

6 сезон

FAR CRY 6

RePack

скачать торрент

Лицензия

скачать торрент

MVO

1

1 сезон

скачать торрент

1 сезон

скачать торрент

Лицензия

  

На грани / Man on a Ledge (Асгер Лет) [2012, триллер, боевик, криминал, UHD BDRemux 2160p] Дубляж [Лицензия] + AVO [А. Гаврилов]

На грани через торрент piratbit.org

Размер: 50.96 GB | Добавлен: 3 года 10 мес. назад | Торрент скачан:30 раз
Смотреть онлайн | Скачать | Поддержите нас   

08-04-2019 15:23 На грани Скачать торрент  

На грани / Man on a Ledge«Только невиновного можно загнать так высоко»

Год выпуска: 2012
Страна: США
Жанр: триллер, боевик, криминал
Продолжительность: 01:42:23
Перевод: Дублированный, авторский
Субтитры: Русские, английские
Режиссер: Асгер Лет
В ролях:

Сэм Уортингтон (Nick Cassidy), Элизабет Бэнкс (Lydia Mercer), Джейми Белл (Joey Cassidy), Дженезис Родригез (Angie), Эд Харрис (David Englander), Энтони Маки (Mike Ackerman), Титус Уэлливер (Dante Marcus), Эдвард Бёрнс (Jack Dougherty), Уильям Сэдлер (Valet), Кира Седжвик (Suzie Morales), Терри Серпико (Lutz), Мэнди Гонзалес (Manager)
Описание:
Экс-полицейский, обвиняемый в преступлении, которого он якобы не совершал, собирается покончить жизнь самоубийством, сбросившись с крыши одного из отелей на Манхэттене. С ним в переговоры вступает психолог нью-йоркской полиции. Напряжение нарастает с каждой минутой, на площадь стягиваются наряды спецподразделений, толпа оглашается женскими криками. А в это время на месте происшествия, прямо под носом у полиции, совершается грандиозное ограбление века: неизвестные похищают уникальный бриллиант...
Рейтинг:

MPAA: PG-13 - Детям до 13 лет просмотр не желателен
Качество: UHD BDRemux 2160p
Формат: MKV
Видео: HEVC HDR, 55.7 Мбит/с, 3840x2160, 23.976 кадр/с
Аудио #1: RUS DTS-HD MA 5.1 / 48 kHz / 3736 kbps / 24-bit-Одноголосый закадровый, А. Гаврилов
Аудио #2: RUS DTS-HD MA 5.1 / 48 kHz / 2219 kbps / 16-bit-Дублированный
Аудио #3: ENG DTS-HD MA 7.1 / 48 kHz / 4250 kbps / 24-bit -Original
Аудио #4: ENG TrueHD 7.1 / 48 kHz / 6540 kbps /-Original
Аудио #5: ENG AC3, 48 kHz /3/2 (L,C,R,l,r) + LFE ch, 640 kbps-Original
Аудио #6: SPA AC3, 48 kHz /3/2 (L,C,R,l,r) + LFE ch, 448 kbps-Дублированный
Навигация по главам: есть
Complete name : I:\Movies\Man.on.a.Ledge.2012.2160p.BluRay.REMUX.HEVC.DTS-HD.MA.TrueHD.7.1.Atmos-SpaceHD13.mkv
Format : Matroska
Format version : Version 4
File size : 51.0 GiB
Duration : 1 h 42 min
Overall bit rate mode : Variable
Overall bit rate : 71.3 Mb/s
Movie name : Man.on.a.Ledge.2012.2160p.BluRay.REMUX.HEVC-Release by SpaceHD13
Encoded date : UTC 2019-04-08 11:41:00
Writing application : mkvmerge v31.0.0 ('Dolores In A Shoestand') 64-bit
Writing library : libebml v1.3.6 + libmatroska v1.4.9
Cover : Yes
Attachments : cover.png

Video
ID : 1
Format : HEVC
Format/Info : High Efficiency Video Coding
Commercial name : HDR10
Format profile : Main 10@L5.1@High
Codec ID : V_MPEGH/ISO/HEVC
Duration : 1 h 42 min
Bit rate : 55.7 Mb/s
Width : 3 840 pixels
Height : 2 160 pixels
Display aspect ratio : 16:9
Frame rate mode : Constant
Frame rate : 23.976 (24000/1001) FPS
Color space : YUV
Chroma subsampling : 4:2:0 (Type 2)
Bit depth : 10 bits
Bits/(Pixel*Frame) : 0.280
Stream size : 39.8 GiB (78%)
Title : Man.on.a.Ledge.2012.2160p.BluRay.REMUX.HEVC.DTS-HD.MA.TrueHD.7.1.Atmos-SpaceHD13
Default : Yes
Forced : No
Color range : Limited
Color primaries : BT.2020
Transfer characteristics : PQ
Matrix coefficients : BT.2020 non-constant
Mastering display color pri : Display P3
Mastering display luminance : min: 0.0001 cd/m2, max: 1000 cd/m2
Maximum Content Light Level : 1000 cd/m2
Maximum Frame-Average Light : 327 cd/m2

Audio #1
ID : 2
Format : DTS XLL
Format/Info : Digital Theater Systems
Commercial name : DTS-HD Master Audio
Codec ID : A_DTS
Duration : 1 h 42 min
Bit rate mode : Variable
Bit rate : 2 219 kb/s
Channel(s) : 6 channels
Channel layout : C L R Ls Rs LFE
Sampling rate : 48.0 kHz
Frame rate : 93.750 FPS (512 SPF)
Bit depth : 16 bits
Compression mode : Lossless
Stream size : 1.59 GiB (3%)
Title : Дубляж
Language : Russian
Default : Yes
Forced : No

Audio #2
ID : 3
Format : DTS XLL
Format/Info : Digital Theater Systems
Commercial name : DTS-HD Master Audio
Codec ID : A_DTS
Duration : 1 h 42 min
Bit rate mode : Variable
Bit rate : 3 736 kb/s
Channel(s) : 6 channels
Channel layout : C L R Ls Rs LFE
Sampling rate : 48.0 kHz
Frame rate : 93.750 FPS (512 SPF)
Bit depth : 24 bits
Compression mode : Lossless
Stream size : 2.67 GiB (5%)
Title : Гаврилов
Language : Russian
Default : No
Forced : No

Audio #3
ID : 4
Format : DTS XLL
Format/Info : Digital Theater Systems
Commercial name : DTS-HD Master Audio
Codec ID : A_DTS
Duration : 1 h 42 min
Bit rate mode : Variable
Bit rate : 4 250 kb/s
Channel(s) : 8 channels
Channel layout : C L R LFE Lb Rb Lss Rss
Sampling rate : 48.0 kHz
Frame rate : 93.750 FPS (512 SPF)
Bit depth : 24 bits
Compression mode : Lossless
Stream size : 3.04 GiB (6%)
Language : English
Default : No
Forced : No

Audio #4
ID : 5
Format : MLP FBA 16-ch
Format/Info : Meridian Lossless Packing FBA with 16-channel presentation
Commercial name : Dolby TrueHD with Dolby Atmos
Codec ID : A_TRUEHD
Duration : 1 h 42 min
Bit rate mode : Variable
Bit rate : 4 148 kb/s
Maximum bit rate : 6 540 kb/s
Channel(s) : 8 channels
Channel layout : L R C LFE Ls Rs Lb Rb
Sampling rate : 48.0 kHz
Frame rate : 1 200.000 FPS (40 SPF)
Compression mode : Lossless
Stream size : 2.97 GiB (6%)
Language : English
Default : No
Forced : No
Number of dynamic objects : 11
Bed channel count : 1 channel
Bed channel configuration : LFE

Audio #5
ID : 6
Format : AC-3
Format/Info : Audio Coding 3
Commercial name : Dolby Digital
Codec ID : A_AC3
Duration : 1 h 42 min
Bit rate mode : Constant
Bit rate : 640 kb/s
Channel(s) : 6 channels
Channel layout : L R C LFE Ls Rs
Sampling rate : 48.0 kHz
Frame rate : 31.250 FPS (1536 SPF)
Bit depth : 16 bits
Compression mode : Lossy
Stream size : 469 MiB (1%)
Language : English
Service kind : Complete Main
Default : No
Forced : No

Audio #6
ID : 7
Format : AC-3
Format/Info : Audio Coding 3
Commercial name : Dolby Digital
Codec ID : A_AC3
Duration : 1 h 42 min
Bit rate mode : Constant
Bit rate : 448 kb/s
Channel(s) : 6 channels
Channel layout : L R C LFE Ls Rs
Sampling rate : 48.0 kHz
Frame rate : 31.250 FPS (1536 SPF)
Bit depth : 16 bits
Compression mode : Lossy
Stream size : 328 MiB (1%)
Language : Spanish
Service kind : Complete Main
Default : No
Forced : No

Text #1
ID : 8
Format : PGS
Muxing mode : zlib
Codec ID : S_HDMV/PGS
Codec ID/Info : Picture based subtitle format used on BDs/HD-DVDs
Duration : 1 h 36 min
Bit rate : 48.9 kb/s
Count of elements : 2656
Stream size : 33.9 MiB (0%)
Language : Russian
Default : Yes
Forced : No

Text #2
ID : 9
Format : PGS
Muxing mode : zlib
Codec ID : S_HDMV/PGS
Codec ID/Info : Picture based subtitle format used on BDs/HD-DVDs
Duration : 1 h 34 min
Bit rate : 50.3 kb/s
Count of elements : 2388
Stream size : 33.9 MiB (0%)
Language : Russian
Default : No
Forced : No

Text #3
ID : 10
Format : PGS
Muxing mode : zlib
Codec ID : S_HDMV/PGS
Codec ID/Info : Picture based subtitle format used on BDs/HD-DVDs
Duration : 1 h 34 min
Bit rate : 41.7 kb/s
Count of elements : 2682
Stream size : 28.1 MiB (0%)
Title : SDH
Language : English
Default : No
Forced : No

Text #4
ID : 11
Format : PGS
Muxing mode : zlib
Codec ID : S_HDMV/PGS
Codec ID/Info : Picture based subtitle format used on BDs/HD-DVDs
Duration : 1 h 37 min
Bit rate : 45.1 kb/s
Count of elements : 3046
Stream size : 31.3 MiB (0%)
Language : English
Default : No
Forced : No

Text #5
ID : 12
Format : UTF-8
Codec ID : S_TEXT/UTF8
Codec ID/Info : UTF-8 Plain Text
Duration : 1 h 34 min
Bit rate : 59 b/s
Count of elements : 1334
Stream size : 40.8 KiB (0%)
Language : English
Default : No
Forced : No

Menu
00:00:00.000 : :Chapter 1
00:04:04.744 : :Chapter 2
00:12:41.135 : :Chapter 3
00:18:51.421 : :Chapter 4
00:24:20.333 : :Chapter 5
00:29:47.118 : :Chapter 6
00:36:09.000 : :Chapter 7
00:43:01.662 : :Chapter 8
00:49:07.736 : :Chapter 9
00:55:50.013 : :Chapter 10
01:02:57.815 : :Chapter 11
01:09:22.241 : :Chapter 12
01:15:50.963 : :Chapter 13
01:21:27.757 : :Chapter 14
01:26:16.254 : :Chapter 15
01:32:40.304 : :Chapter 16



Скачать На грани через торрент https://b.radikal.ru/b41/1904/95/625868959721.png Скачать, смотреть онлайн На грани бесплантно в хорошем качестве Описание: Экс-полицейский, обвиняемый в преступлении, которого он якобы не совершал, собирается покончить жизнь самоубийством, сбросившись ... 10 10 2
Торрент: Зарегистрирован [2019-04-08 15:23] · скачан: 30 раз
Статус: √ проверено
Размер: 50.96 GB
Как cкачать? Как скачать На грани через торрент | UTorrent

% Раздел Тема Автор DL S | L
Ultra HD (UHD: 2K, 4K, 8K) [ 61.12 GB ] На грани / Man on a Ledge | Лицензия | 2160p sheker187 Скачать
1 | 0
Ultra HD (UHD: 2K, 4K, 8K) [ 26.52 GB ] На грани / Man on a Ledge | Лицензия | 2160p sheker187 Скачать
1 | 0
Фильмы (Blu-ray, BD-Remux, HDDVD) [ 33.14 GB ] На грани / Man on a Ledge | Лицензия | 1080p sheker187 Скачать
1 | 0
Фильмы [HD 720p, 1080p] (Хороший звук DUB, MVO) [ 6.37 GB ] На грани / Man on a Ledge | DUB | 720p от potroks potroks Скачать
1 | 0
Фильмы [HD 720p, 1080p] (Хороший звук DUB, MVO) [ 11.56 GB ] На грани / Man on a Ledge | DUB | 1080p _denis_100 Скачать
1 | 0
Фильмы [HD 720p, 1080p] (Хороший звук DUB, MVO) [ 6.22 GB ] На грани / Man on a Ledge | Дубляж | 720p markfiter Скачать
1 | 0
Фильмы 2012 [ 1.46 GB ] На грани / Man on a Ledge | DUB | DVDRip, DUB (лицензия -=Cherry=- Скачать
1 | 0

28-11-2019 20:33  


Отключить вcю реклaмy на сайте, в т.ч. и в плеере онлайн просмотра!

    Дорогой пользователь! Огромная просьба, поблагодарите релизера, оцените раздачу и оставьте свои комментарий, если Вы скачали На грани через торрент бесплатно!!
    Комментировать посты могут только пользователи прошедшие не сложную регистрацию
    Показать сообщения:    


    На грани через торрент
    Скачать бесплатно На грани
    На грани скачать торрент
    На грани смотреть онлайн
    Cкачать фильм На грани бесплатно
    На грани скачать торрент в хорошем качестве
    На грани смотреть онлайн бесплатно в хорошем качестве
    Вы не можете начинать темы
    Вы не можете отвечать на сообщения
    Вы не можете редактировать свои сообщения
    Вы не можете удалять свои сообщения
    Вы не можете голосовать в опросах
    Вы не можете прикреплять файлы к сообщениям
    Вы можете скачивать файлы
    На грани / Man on a Ledge [2012, триллер, боевик, криминал, UHD BDRemux 2160p] Дубляж [Лицензия] + AVO [А. Гаврилов] смотреть онлайн, скачать торрент picoco.icu