Ссылка на приватное зеркало всего за 1$. Внимание количество ограничено!!!

iTunes

iTunes

iTunes

1

iTunes

iTunes

iTunes

iTunes

iTunes

30
pack

Новость дня

ВАЖНО

!!Акция!!

Alien_RageХит недели

RePack

Resident Evil 21

ИГРА 18+

pack

RePack

jed

!!Акция!!

Alien_Rage

RePack

fifa19

RePack

Assassins Creed: Odyssey

RePack

NEED FOR SPEED™ PAYBACK

4 сезон

9 сезон

Бесстыжие 9 сезон

Все сериалы

все сериалы на PB.wtf

RePack

FAR CRY 5
  

12 друзей Оушена / Ocean's Twelve (Стивен Содерберг / Steven Soderbergh) [2004 г., США. Триллер, комедия, криминал. BDRemux 1080p] piratbit.org

12 друзей Оушена через торрент piratbit.org

Размер: 16.21 GB | Добавлен: 9 лет 2 мес. назад | Торрент скачан:132 раза
Скачать  

09-01-2011 06:47 12 друзей Оушена Скачать торрент  

12 друзей Оушена / Ocean's Twelve«Three years ago, they stole 160 million dollars. Now the only thing between their old enemy and their new one is an Ocean.»
Год выпуска: 2004
Страна: США, Warner Bros., Village Roadshow Productions, Jerry Weintraub Productions, Section Eight Ltd.
Жанр: Триллер, комедия, криминал
Продолжительность: 02:05:18

  • Перевод: Профессиональный (полное дублирование)
  • Перевод 2: Профессиональный (двухголосый, Tycoon)
  • Перевод 2: Профессиональный (однноголосый А.Гаврилов)
  • Русские субтитры: есть

Режиссер: Стивен Содерберг / Steven Soderbergh
В ролях: Брэд Питт, Кэтрин Зета-Джонс, Джордж Клуни, Эд Кросс, Джулия Робертс, Мэт Дэймон, Дон Тиффани, Энн Жак, Дэвид Сонтэг, Ларри Сонтэг, Энди Гарсиа
Описание: После блестяще проведенного ограбления трех казино в Лас-Вегасе каждый из членов банды, получив свою долю из 60 миллионов долларов, припеваючи живет на украденные деньги. Но владелец казино Терри Бенедикт - не из тех, кто забывает обиды. Он по-прежнему жаждет мести. Когда Дэнни Оушена и членов его банды предает самодовольный, но действительно профессиональный вор мирового класса по кличке "ночной лис", они вновь объединяются, чтобы совершить серию международных ограблений. Осуществление их планов осложняется появлением Изабель Лаири, обольстительной сотрудницы Интерпола, настойчиво преследующей грабителей.


  • Тип релиза: BDRemux
  • Контейнер: MKV
  • Видео кодек: VC-1 | Аудио кодек: AC3, DTS
  • Видео: VC-1 / 16070 kbps / 1920х1080p / 23,976 fps / 16:9 / Advanced Profile 3
  • Аудио 1: Русский дубляж / Dolby Digital / 5.1 / 48 kHz / 640 kbps / DN -4dB
  • Аудио 2: Русский двухголосый Tycoon / Dolby Digital / 5.1 / 48 kHz / 448 kbps
  • Аудио 3: Русский однноголосый А.Гаврилов / Dolby Digital / 5.1 / 48 kHz / 448 kbps
  • Аудио 4: Английский / Dolby Digital / 5.1 / 48 kHz / 640 kbps / DN -4dB
  • Аудио 5: Английский Dolby Digital / 2.0 / 48 kHz / 192 kbps / DN -4dB (коментарии)
  • Cубтитры 1: Русские
  • Субтитры 2: Английские
  • Субтитры 3: Русские (pgs)
  • Субтитры 4: Английские (pgs)
  • Чаптеры: 36шт.


Полное имя : Ocean's.Twelve.2004.Blu-ray.1080p.VC-1.Rus.Eng.mkv
Формат : Matroska
Размер файла : 16,2 Гбайт
Продолжительность : 2 ч. 5 м.
Общий поток : 18,5 Мбит/сек
Дата кодирования : UTC 2011-01-04 13:20:51
Программа кодирования : mkvmerge v4.4.0 ('Die Wiederkehr') built on Oct 31 2010 21:52:48
Библиотека кодирования : libebml v1.0.0 + libmatroska v1.0.0

Видео
Идентификатор : 1
Формат : VC-1
Профиль формата : AP@L3
Идентификатор кодека : WVC1
Идентификатор кодека/Подсказка : Microsoft
Продолжительность : 2 ч. 5 м.
Битрейт : 15,8 Мбит/сек
Ширина : 1920 пикс.
Высота : 1080 пикс.
Соотношение сторон : 16:9
Частота кадров : 23,976 кадр/сек
Подвыборка цветности : 4:2:0
Битовая глубина : 8 бит
Тип развёртки : Прогрессивная
Метод сжатия : С потерями
Бит/(Пиксели*Кадры) : 0.317
Размер потока : 13,8 Гбайт (85%)
Заголовок : 16070 kbps
Язык : English

Аудио #1
Идентификатор : 2
Формат : AC-3
Формат/Информация : Audio Coding 3
Расширение режима : CM (complete main)
Идентификатор кодека : A_AC3
Продолжительность : 2 ч. 5 м.
Вид битрейта : Постоянный
Битрейт : 640 Кбит/сек
Канал(ы) : 6 канала(ов)
Расположение каналов : Front: L C R, Side: L R, LFE
Частота : 48,0 КГц
Битовая глубина : 16 бит
Метод сжатия : С потерями
Размер потока : 574 Мбайт (3%)
Заголовок : Dub
Язык : Russian

Аудио #2
Идентификатор : 3
Формат : AC-3
Формат/Информация : Audio Coding 3
Расширение режима : CM (complete main)
Идентификатор кодека : A_AC3
Продолжительность : 2 ч. 5 м.
Вид битрейта : Постоянный
Битрейт : 448 Кбит/сек
Канал(ы) : 6 канала(ов)
Расположение каналов : Front: L C R, Side: L R, LFE
Частота : 48,0 КГц
Битовая глубина : 16 бит
Метод сжатия : С потерями
Размер потока : 402 Мбайт (2%)
Заголовок : Tycoon
Язык : Russian

Аудио #3
Идентификатор : 4
Формат : AC-3
Формат/Информация : Audio Coding 3
Расширение режима : CM (complete main)
Идентификатор кодека : A_AC3
Продолжительность : 2 ч. 5 м.
Вид битрейта : Постоянный
Битрейт : 448 Кбит/сек
Канал(ы) : 6 канала(ов)
Расположение каналов : Front: L C R, Side: L R, LFE
Частота : 48,0 КГц
Битовая глубина : 16 бит
Метод сжатия : С потерями
Размер потока : 402 Мбайт (2%)
Заголовок : Gavrilov
Язык : Russian

Аудио #4
Идентификатор : 5
Формат : AC-3
Формат/Информация : Audio Coding 3
Расширение режима : CM (complete main)
Идентификатор кодека : A_AC3
Продолжительность : 2 ч. 5 м.
Вид битрейта : Постоянный
Битрейт : 640 Кбит/сек
Канал(ы) : 6 канала(ов)
Расположение каналов : Front: L C R, Side: L R, LFE
Частота : 48,0 КГц
Битовая глубина : 16 бит
Метод сжатия : С потерями
Размер потока : 574 Мбайт (3%)
Язык : English

Аудио #5
Идентификатор : 6
Формат : AC-3
Формат/Информация : Audio Coding 3
Профиль формата : Dolby Digital
Расширение режима : CM (complete main)
Идентификатор кодека : A_AC3
Продолжительность : 2 ч. 5 м.
Вид битрейта : Постоянный
Битрейт : 192 Кбит/сек
Канал(ы) : 2 канала(ов)
Расположение каналов : Front: L R
Частота : 48,0 КГц
Битовая глубина : 16 бит
Метод сжатия : С потерями
Размер потока : 172 Мбайт (1%)
Заголовок : Commentary
Язык : English

Текст #1
Идентификатор : 7
Формат : UTF-8
Идентификатор кодека : S_TEXT/UTF8
Идентификатор кодека/Информация : UTF-8 Plain Text
Язык : Russian

Текст #2
Идентификатор : 8
Формат : UTF-8
Идентификатор кодека : S_TEXT/UTF8
Идентификатор кодека/Информация : UTF-8 Plain Text
Язык : English

Текст #3
Идентификатор : 9
Формат : PGS
Идентификатор кодека : S_HDMV/PGS
Идентификатор кодека/Информация : The same subtitle format used on BDs/HD-DVDs
Язык : Russian

Текст #4
Идентификатор : 10
Формат : PGS
Идентификатор кодека : S_HDMV/PGS
Идентификатор кодека/Информация : The same subtitle format used on BDs/HD-DVDs
Язык : English

Меню
00:00:00.000 : en:Rusty and Isabel
00:03:07.229 : en:Mr. and Mrs. Diaz
00:08:09.823 : en:Terry Visits the Gang
00:14:52.058 : en:"You Have Two Weeks"
00:16:39.999 : en:"How Much Does Everybody Owe?"
00:22:04.490 : en:"Amsterdam It Is"
00:24:09.615 : en:Linus Meets Matsui
00:27:16.134 : en:Planning the Heist
00:30:58.523 : en:Raising the House
00:36:16.007 : en:Isabel at the Crime Scene
00:39:37.709 : en:Love at First Sight
00:41:31.989 : en:Second Place
00:45:17.548 : en:Isabel Questions Rusty
00:51:16.407 : en:Bagman's Travels
00:56:44.234 : en:The Night Fox
00:58:47.691 : en:Danny and Tolour Make a Bet
01:02:00.216 : en:Nagel Leaves a Message
01:03:33.309 : en:Rome
01:05:53.449 : en:Scouting the Museum
01:09:49.018 : en:Rusty Surprises Isabel
01:13:10.553 : en:"Andre Ciment" and Isabel
01:15:32.027 : en:Wake-Up Call
01:17:25.140 : en:Day Of
01:20:23.819 : en:Linus Takes Charge
01:22:50.966 : en:Tess to the Rescue
01:26:02.324 : en:Surprise Visit
01:30:49.444 : en:At the Museum
01:35:19.547 : en:Section Chief Molly Star
01:38:13.721 : en:Caravan
01:41:21.409 : en:Isabel's Big Decision
01:44:19.753 : en:Guests on the Veranda
01:46:35.389 : en:Laser Dance
01:48:38.512 : en:A Very Elaborate Show
01:53:47.320 : en:"Whose House Is This?"
01:57:24.537 : en:Monday Night
01:58:47.620 : en:End Titles

  • Во время съемок в Риме произошел довольно курьезный случай. Брэд Питт и Джордж Клуни не могли зайти в гостиницу, так как дворецкий был уверен в том, что это простые бродяги. Актеры попали под проливной ливень и были непохожи сами на себя.
  • Некоторые сцены, которые по сюжету должны были сниматься в Амстердаме, на самом деле были отсняты в Гарлеме (точнее в 20 км от него).
  • Сюжетная линия, разработанная сценаристом Джорджем Нолфи, на самом деле предназначалась для одного из фильмов Джона Ву. После того, как было принято решение о создании сиквела продюсеры кинокомпании Warner Bros. Попросили Джорджа переписать сценарий под персонажей фильма «11 друзей Оушена».
  • Во время съемок на Сицилии вся местная охрана была поднята на уши, так как неподалеку от места проведения съемок были замечены члены
  • Сицилийской мафиозной группировки.
  • Стивен Содерберг настоял на том, чтобы на создание картины были выделены такие же бюджетные средства, как и на первый фильм — «11 друзей Оушена» (2001).

piratbit.org



Скачать 12 друзей Оушена через торрент http://i13.fastpic.ru/big/2011/0108/4b/293096d7742f91480ac033a3ac69444b.jpg Скачать фильм 12 друзей Оушена через торрент бесплантно в хорошем качестве Описание: После блестяще проведенного ограбления трех казино в Лас-Вегасе каждый из членов банды, получив свою долю из 60 миллионов ... 10 10 1
Info! Золотая раздача, скачанное не засчитывается.
Торрент: Зарегистрирован [2011-01-09 06:47] · скачан: 132 раз
Статус: √ проверено
Размер: 16.21 GB
Как cкачать? Как скачать 12 друзей Оушена через торрент | qTorrent

28-11-2019 20:33  

Отключить всю рекламу на сайте

09-01-2011 07:40 12 друзей Оушена Скачать торрент  

diletant
Молодчинка!!!piratbit.org



09-01-2011 07:42 12 друзей Оушена Скачать торрент  

может и 11 Друзей Оушена выложуpiratbit.org





Последний раз редактировалось: diletant (2011-01-09 08:06), всего редактировалось 1 раз

09-01-2011 07:43 12 друзей Оушена Скачать торрент  

а вообще это трилогия? продолжения не ожидается? ( =
классный фильмец)piratbit.org



09-01-2011 07:47 12 друзей Оушена Скачать торрент  

Romeo0502 писал(а):

а вообще это трилогия? продолжения не ожидается? ( =
классный фильмец)

как бы да. на счет продолжения не слышал.piratbit.org



19-03-2011 08:01 12 друзей Оушена Скачать торрент  

крутой!piratbit.org



    Дорогой пользователь! Огромная просьба, поблагодарите релизера, оцените раздачу и оставьте свои комментарий, если Вы скачали 12 друзей Оушена через торрент бесплатно! Внесите свою лепту в развитие PiratBit!
    Комментировать посты могут только пользователи прошедшие не сложную регистрацию
    Показать сообщения:    

    12 друзей Оушена через торрент
    Скачать бесплатно 12 друзей Оушена
    12 друзей Оушена скачать торрент
    12 друзей Оушена смотреть онлайн
    Cкачать фильм 12 друзей Оушена бесплатно
    12 друзей Оушена скачать торрент в хорошем качестве
    12 друзей Оушена смотреть онлайн бесплатно в хорошем качестве


    Вы не можете начинать темы
    Вы не можете отвечать на сообщения
    Вы не можете редактировать свои сообщения
    Вы не можете удалять свои сообщения
    Вы не можете голосовать в опросах
    Вы не можете прикреплять файлы к сообщениям
    Вы можете скачивать файлы