Достать ножи: Стеклянная луковица

MVO

Добыча

Дубляж

Уэнсдэй

1 сезон

Тор

Дубляж

13 клиническая

1 сезон

Жестокая ночь

MVO

Одни из нас

1 сезон

Deluxe

pack

Рекомендуем

30

Пиратка

ВАЖНО

ВАЖНО

Ghostwire

Пиратка

jed

RePack

nioh2

RePack

RDR2

RePack

NEED FOR SPEED™ PAYBACK

RePack

скачать торрент

Кинопоиск HD

Острые козырьки 6 сезон

6 сезон

FAR CRY 6

RePack

скачать торрент

Лицензия

скачать торрент

MVO

1

1 сезон

скачать торрент

1 сезон

скачать торрент

Лицензия

  

Чужой / Alien (Ридли Скотт) [1979, ужасы, фантастика, триллер, UHD BDRemux 2160p] Дубляж + 2xMVO + 5xAVO + VO [Театральная версия]

Чужой через торрент piratbit.org

Размер: 46.76 GB | Добавлен: 3 года 9 мес. назад | Торрент скачан:47 раз
Смотреть онлайн | Скачать | Поддержите нас   

10-04-2019 02:50 Чужой Скачать торрент  

Чужой / Alien«В космосе твой крик никто не услышит...»
Год выпуска: 1979
Страна: Великобритания, США
Жанр: ужасы, фантастика, триллер
Продолжительность: 01:56:38
Перевод: Дублированный, профессиональный многоголосый, авторский, любительский одноголосый
Субтитры: Русские, английские
Режиссер: Ридли Скотт
В ролях:

Сигурни Уивер (Ripley), Том Скеррит (Dallas), Иэн Холм (Ash), Джон Хёрт (Kane), Гарри Дин Стэнтон (Brett), Вероника Картрайт (Lambert), Яфет Котто (Parker), Боладжи Бадеджо (Alien), Хелен Хортон (Mother, озвучка), Эдди Пауэлл (Alien, в титрах не указан)
Описание:
В далеком будущем возвращающийся на Землю грузовой космический корабль перехватывает исходящий с неизвестной планеты неопознанный сигнал. Экипаж принимает решение совершить посадку и разобраться, в чем дело. Оказавшись на планете, астронавты повсюду обнаруживают неопознанные предметы, по виду напоминающие гигантские коконы...
Рейтинг:

MPAA: R - Лицам до 17 лет обязательно присутствие взрослого
Качество: UHD BDRemux 2160p
Формат: MKV
Видео: HEVC HDR, 49.4 Мбит/с, 3840x2160, 23.976 кадр/с
Аудио #1: 48 kHz, DTS, 6ch, ~768.00 kbps avg /RUS/ Дубляж (Blu-ray CEE)
Аудио #2: 48 kHz, DTS, 6ch, ~768.00 kbps avg /RUS/ Многоголосый закадровый (Двадцатый Век Фокс СНГ)
Аудио #3: 48 kHz, AC3, 2ch, ~192.00 kbps avg /RUS/ Многоголосый закадровый (Премьер Видео Фильм)
Аудио #4: 48 kHz, AC3, 6ch, ~448.00 kbps avg /RUS/ Пучков
Аудио #5: 48 kHz, AC3, 2ch, ~192.00 kbps avg /RUS/ Живов
Аудио #6: 48 kHz, AC3, 2ch, ~192.00 kbps avg /RUS/ Горчаков №1
Аудио #7: 48 kHz, AC3, 6ch, ~448.00 kbps avg /RUS/ Горчаков №2
Аудио #8: 48 kHz, AC3, 6ch, ~448.00 kbps avg /RUS/ Горчаков №3
Аудио #9: 48 kHz, AC3, 2ch, ~192.00 kbps avg /RUS/ Володарский
Аудио #10: 48 kHz, AC3, 2ch, ~192.00 kbps avg /RUS/ Неизвестный перец
Аудио #11: 48 kHz, AC3, 2ch, ~192.00 kbps avg /RUS/ Махонько
Аудио #12: 48 kHz/24-bit, DTS-HD MA 5.1, ~3427.00 kbps avg /ENG/ Оригинал
Аудио #13: 48 kHz, AC3, 2ch, ~224.00 kbps avg /ENG/ Commentary from 2003 by director Ridley Scott, writer Dan O'Bannon, executive producer Ronald Shusett, Editor Terry Rawlings and actors Sigourney Weaver, Tom Skeritt, Veronica Cartwright, Harry Dean Stanton and John Hurt
Аудио #14: 48 kHz, AC3, 2ch, ~224.00 kbps avg /ENG/ Commentary from 1999 by director Ridley Scott
Навигация по главам: есть

Включён в 2002 году в Национальный регистр фильмов.
Сатурн, 2004 год
Номинации (1):
Лучшая DVD-коллекция — «For the Alien Quadrilogy»
Оскар, 1980 год
Победитель (1):
Лучшие визуальные эффекты
Номинации (1):
Лучшие декорации
Золотой глобус, 1980 год
Номинации (1):
Лучший саундтрек
Британская академия, 1980 год
Победитель (2):
Лучший саундтрек
Лучшая работа художника-постановщика
Номинации (5):
Лучшая мужская роль второго плана (Джон Хёрт)
Лучшие костюмы
Лучший монтаж
Самый многообещающий новичок (Сигурни Уивер)
Премия имени Энтони Эскуита за достижения в создании музыки к фильму
Сатурн, 1980 год
Победитель (3):
Лучший научно-фантастический фильм
Лучший режиссер (Ридли Скотт)
Лучшая актриса второго плана (Вероника Картрайт)
Номинации (4):
Лучшая актриса (Сигурни Уивер)
Лучший сценарий
Лучшие спецэффекты
Лучший грим
Сан-Себастьян, 1979 год
Победитель (1):
Серебряная раковина за лучшую работу оператора и спецэффекты
Complete name : I:\Movies\Alien.1979.Theatrical.Cut.UHD.BluRay.2160p.DTS-HD.MA.5.1.HEVC.REMUX-SpaceHD13.mkv
Format : Matroska
Format version : Version 4
File size : 46.8 GiB
Duration : 1 h 56 min
Overall bit rate mode : Variable
Overall bit rate : 57.4 Mb/s
Movie name : Alien.1979.Theatrical.Cut.UHD.BluRay.2160p-Release by SpaceHD13
Encoded date : UTC 2019-04-09 15:58:14
Writing application : mkvmerge v31.0.0 ('Dolores In A Shoestand') 64-bit
Writing library : libebml v1.3.6 + libmatroska v1.4.9
Cover : Yes
Attachments : cover.png

Video
ID : 1
Format : HEVC
Format/Info : High Efficiency Video Coding
Commercial name : HDR10
Format profile : Main 10@L5.1@High
Codec ID : V_MPEGH/ISO/HEVC
Duration : 1 h 56 min
Bit rate : 49.4 Mb/s
Width : 3 840 pixels
Height : 2 160 pixels
Display aspect ratio : 16:9
Frame rate mode : Constant
Frame rate : 23.976 (24000/1001) FPS
Color space : YUV
Chroma subsampling : 4:2:0 (Type 2)
Bit depth : 10 bits
Bits/(Pixel*Frame) : 0.248
Stream size : 40.3 GiB (86%)
Title : Alien.1979.Theatrical.Cut.UHD.BluRay.2160p.DTS-HD.MA.5.1.HEVC.REMUX-SpaceHD13
Default : Yes
Forced : No
Color range : Limited
Color primaries : BT.2020
Transfer characteristics : PQ
Matrix coefficients : BT.2020 non-constant
Mastering display color pri : Display P3
Mastering display luminance : min: 0.0050 cd/m2, max: 1000 cd/m2

Audio #1
ID : 2
Format : DTS
Format/Info : Digital Theater Systems
Codec ID : A_DTS
Duration : 1 h 56 min
Bit rate mode : Constant
Bit rate : 768 kb/s
Channel(s) : 6 channels
Channel layout : C L R Ls Rs LFE
Sampling rate : 48.0 kHz
Frame rate : 93.750 FPS (512 SPF)
Bit depth : 24 bits
Compression mode : Lossy
Delay relative to video : 5 ms
Stream size : 640 MiB (1%)
Title : DTS, 6ch @ 768 kbps - Дубляж (Blu-ray CEE)
Language : Russian
Default : Yes
Forced : No

Audio #2
ID : 3
Format : DTS
Format/Info : Digital Theater Systems
Codec ID : A_DTS
Duration : 1 h 56 min
Bit rate mode : Constant
Bit rate : 755 kb/s
Channel(s) : 6 channels
Channel layout : C L R Ls Rs LFE
Sampling rate : 48.0 kHz
Frame rate : 93.750 FPS (512 SPF)
Bit depth : 24 bits
Compression mode : Lossy
Delay relative to video : 5 ms
Stream size : 629 MiB (1%)
Title : DTS, 6ch @ 768 kbps - MVO 20 Century Fox
Language : Russian
Default : No
Forced : No

Audio #3
ID : 4
Format : AC-3
Format/Info : Audio Coding 3
Commercial name : Dolby Digital
Codec ID : A_AC3
Duration : 1 h 56 min
Bit rate mode : Constant
Bit rate : 192 kb/s
Channel(s) : 2 channels
Channel layout : L R
Sampling rate : 48.0 kHz
Frame rate : 31.250 FPS (1536 SPF)
Bit depth : 16 bits
Compression mode : Lossy
Delay relative to video : 16 ms
Stream size : 160 MiB (0%)
Title : AC3, 2ch @ 192 kbps - MVO Premier
Language : Russian
Service kind : Complete Main
Default : No
Forced : No

Audio #4
ID : 5
Format : AC-3
Format/Info : Audio Coding 3
Commercial name : Dolby Digital
Codec ID : A_AC3
Duration : 1 h 56 min
Bit rate mode : Constant
Bit rate : 448 kb/s
Channel(s) : 6 channels
Channel layout : L R C LFE Ls Rs
Sampling rate : 48.0 kHz
Frame rate : 31.250 FPS (1536 SPF)
Bit depth : 16 bits
Compression mode : Lossy
Delay relative to video : 16 ms
Stream size : 374 MiB (1%)
Title : AC3, 6ch @ 448 kbps - AVO Goblin
Language : Russian
Service kind : Complete Main
Default : No
Forced : No

Audio #5
ID : 6
Format : AC-3
Format/Info : Audio Coding 3
Commercial name : Dolby Digital
Codec ID : A_AC3
Duration : 1 h 56 min
Bit rate mode : Constant
Bit rate : 192 kb/s
Channel(s) : 2 channels
Channel layout : L R
Sampling rate : 48.0 kHz
Frame rate : 31.250 FPS (1536 SPF)
Bit depth : 16 bits
Compression mode : Lossy
Delay relative to video : 16 ms
Stream size : 160 MiB (0%)
Title : AC3, 2ch @ 192 kbps - AVO Zhivov
Language : Russian
Service kind : Complete Main
Default : No
Forced : No

Audio #6
ID : 7
Format : AC-3
Format/Info : Audio Coding 3
Commercial name : Dolby Digital
Codec ID : A_AC3
Duration : 1 h 56 min
Bit rate mode : Constant
Bit rate : 192 kb/s
Channel(s) : 2 channels
Channel layout : L R
Sampling rate : 48.0 kHz
Frame rate : 31.250 FPS (1536 SPF)
Bit depth : 16 bits
Compression mode : Lossy
Delay relative to video : 16 ms
Stream size : 160 MiB (0%)
Title : AC3, 2ch @ 192 kbps - AVO Gorchakov #1
Language : Russian
Service kind : Complete Main
Default : No
Forced : No

Audio #7
ID : 8
Format : AC-3
Format/Info : Audio Coding 3
Commercial name : Dolby Digital
Codec ID : A_AC3
Duration : 1 h 56 min
Bit rate mode : Constant
Bit rate : 448 kb/s
Channel(s) : 6 channels
Channel layout : L R C LFE Ls Rs
Sampling rate : 48.0 kHz
Frame rate : 31.250 FPS (1536 SPF)
Bit depth : 16 bits
Compression mode : Lossy
Delay relative to video : 16 ms
Stream size : 374 MiB (1%)
Title : AC3, 6ch @ 448 kbps - AVO Gorchakov #2
Language : Russian
Service kind : Complete Main
Default : No
Forced : No

Audio #8
ID : 9
Format : AC-3
Format/Info : Audio Coding 3
Commercial name : Dolby Digital
Codec ID : A_AC3
Duration : 1 h 56 min
Bit rate mode : Constant
Bit rate : 448 kb/s
Channel(s) : 6 channels
Channel layout : L R C LFE Ls Rs
Sampling rate : 48.0 kHz
Frame rate : 31.250 FPS (1536 SPF)
Bit depth : 16 bits
Compression mode : Lossy
Delay relative to video : 16 ms
Stream size : 374 MiB (1%)
Title : AC3, 6ch @ 448 kbps - AVO Gorchakov #3
Language : Russian
Service kind : Complete Main
Default : No
Forced : No

Audio #9
ID : 10
Format : AC-3
Format/Info : Audio Coding 3
Commercial name : Dolby Digital
Codec ID : A_AC3
Duration : 1 h 56 min
Bit rate mode : Constant
Bit rate : 192 kb/s
Channel(s) : 2 channels
Channel layout : L R
Sampling rate : 48.0 kHz
Frame rate : 31.250 FPS (1536 SPF)
Bit depth : 16 bits
Compression mode : Lossy
Delay relative to video : 16 ms
Stream size : 160 MiB (0%)
Title : AC3, 2ch @ 192 kbps - AVO Volodarsky
Language : Russian
Service kind : Complete Main
Default : No
Forced : No

Audio #10
ID : 11
Format : AC-3
Format/Info : Audio Coding 3
Commercial name : Dolby Digital
Codec ID : A_AC3
Duration : 1 h 56 min
Bit rate mode : Constant
Bit rate : 192 kb/s
Channel(s) : 2 channels
Channel layout : L R
Sampling rate : 48.0 kHz
Frame rate : 31.250 FPS (1536 SPF)
Bit depth : 16 bits
Compression mode : Lossy
Delay relative to video : 16 ms
Stream size : 160 MiB (0%)
Title : AC3, 2ch @ 192 kbps - AVO Neizvestny perets
Language : Russian
Service kind : Complete Main
Default : No
Forced : No

Audio #11
ID : 12
Format : AC-3
Format/Info : Audio Coding 3
Commercial name : Dolby Digital
Codec ID : A_AC3
Duration : 1 h 56 min
Bit rate mode : Constant
Bit rate : 192 kb/s
Channel(s) : 2 channels
Channel layout : L R
Sampling rate : 48.0 kHz
Frame rate : 31.250 FPS (1536 SPF)
Bit depth : 16 bits
Compression mode : Lossy
Delay relative to video : 16 ms
Stream size : 160 MiB (0%)
Title : AC3, 2ch @ 192 kbps - AVO Mahon'ko
Language : Russian
Service kind : Complete Main
Default : No
Forced : No

Audio #12
ID : 13
Format : DTS XLL
Format/Info : Digital Theater Systems
Commercial name : DTS-HD Master Audio
Codec ID : A_DTS
Duration : 1 h 56 min
Bit rate mode : Variable
Bit rate : 3 427 kb/s
Channel(s) : 6 channels
Channel layout : C L R Ls Rs LFE
Sampling rate : 48.0 kHz
Frame rate : 93.750 FPS (512 SPF)
Bit depth : 24 bits
Compression mode : Lossless
Stream size : 2.79 GiB (6%)
Title : DTS-HD MA 5.1
Language : English
Default : No
Forced : No

Audio #13
ID : 14
Format : AC-3
Format/Info : Audio Coding 3
Commercial name : Dolby Digital
Codec ID : A_AC3
Duration : 1 h 56 min
Bit rate mode : Constant
Bit rate : 224 kb/s
Channel(s) : 2 channels
Channel layout : L R
Sampling rate : 48.0 kHz
Frame rate : 31.250 FPS (1536 SPF)
Bit depth : 16 bits
Compression mode : Lossy
Stream size : 187 MiB (0%)
Title : Commentary from 2003 by director Ridley Scott, writer Dan O'Bannon, executive producer Ronald Shusett, Editor Terry Rawlings and actors Sigourney Weaver, Tom Skeritt, Veronica Cartwright, Harry Dean Stanton and John Hurt
Language : English
Service kind : Complete Main
Default : No
Forced : No

Audio #14
ID : 15
Format : AC-3
Format/Info : Audio Coding 3
Commercial name : Dolby Digital
Codec ID : A_AC3
Duration : 1 h 56 min
Bit rate mode : Constant
Bit rate : 224 kb/s
Channel(s) : 2 channels
Channel layout : L R
Sampling rate : 48.0 kHz
Frame rate : 31.250 FPS (1536 SPF)
Bit depth : 16 bits
Compression mode : Lossy
Stream size : 187 MiB (0%)
Title : Commentary from 1999 by director Ridley Scott
Language : English
Service kind : Complete Main
Default : No
Forced : No

Text #1
ID : 16
Format : UTF-8
Codec ID : S_TEXT/UTF8
Codec ID/Info : UTF-8 Plain Text
Duration : 1 h 54 min
Bit rate : 43 b/s
Count of elements : 776
Stream size : 36.6 KiB (0%)
Language : Russian
Default : Yes
Forced : Yes

Text #2
ID : 17
Format : UTF-8
Codec ID : S_TEXT/UTF8
Codec ID/Info : UTF-8 Plain Text
Duration : 1 h 56 min
Bit rate : 110 b/s
Count of elements : 1393
Stream size : 93.8 KiB (0%)
Title : Commentary from 1999 by director Ridley Scott
Language : Russian
Default : No
Forced : No

Text #3
ID : 18
Format : UTF-8
Codec ID : S_TEXT/UTF8
Codec ID/Info : UTF-8 Plain Text
Duration : 1 h 56 min
Bit rate : 161 b/s
Count of elements : 1852
Stream size : 138 KiB (0%)
Title : Commentary from 2003 by director Ridley Scott, writer Dan O'Bannon, executive producer Ronald Shusett, Editor Terry Rawlings and actors Sigourney Weaver, Tom Skeritt, Veronica Cartwright, Harry Dean Stanton and John Hurt
Language : Russian
Default : No
Forced : No

Text #4
ID : 19
Format : PGS
Muxing mode : zlib
Codec ID : S_HDMV/PGS
Codec ID/Info : Picture based subtitle format used on BDs/HD-DVDs
Duration : 1 h 50 min
Bit rate : 30.1 kb/s
Count of elements : 2014
Stream size : 23.8 MiB (0%)
Title : SDH
Language : English
Default : No
Forced : No

Text #5
ID : 20
Format : UTF-8
Codec ID : S_TEXT/UTF8
Codec ID/Info : UTF-8 Plain Text
Duration : 1 h 49 min
Bit rate : 30 b/s
Count of elements : 725
Stream size : 24.1 KiB (0%)
Language : English
Default : No
Forced : No

Text #6
ID : 21
Format : PGS
Muxing mode : zlib
Codec ID : S_HDMV/PGS
Codec ID/Info : Picture based subtitle format used on BDs/HD-DVDs
Duration : 1 h 56 min
Bit rate : 85.1 kb/s
Count of elements : 3857
Stream size : 70.8 MiB (0%)
Title : Commentary #1
Language : English
Default : No
Forced : No

Text #7
ID : 22
Format : PGS
Muxing mode : zlib
Codec ID : S_HDMV/PGS
Codec ID/Info : Picture based subtitle format used on BDs/HD-DVDs
Duration : 1 h 55 min
Bit rate : 54.1 kb/s
Count of elements : 2892
Stream size : 44.9 MiB (0%)
Title : Commentary #2
Language : English
Default : No
Forced : No

Menu
00:00:00.000 : :Main Titles
00:01:59.119 : :Awakening
00:09:15.221 : :Nostromo Re-Routed
00:12:45.139 : :Answering the Call
00:18:34.947 : :Walking Distance
00:21:51.685 : :Proceeding Blindly
00:23:51.972 : :Dark Horizons
00:26:48.606 : :A Word of Warning
00:31:04.779 : :Kane's Descent
00:34:45.499 : :Surface Tension
00:39:12.266 : :Acid
00:42:04.897 : :Standard Procedure
00:46:23.280 : :The Missing Guest
00:50:53.466 : :Long Journey Ahead
00:53:33.835 : :The Last Supper
00:58:24.125 : :On the Hunt
01:03:30.473 : :"Here Jonesy"
01:08:05.497 : :"What are my chances?"
01:10:59.171 : :Into the Air Ducts
01:14:07.609 : :The Third Junction
01:15:49.127 : :"No blood, no Dallas"
01:18:35.210 : :Special Order 937
01:24:08.126 : :"Crew expendable"
01:28:22.004 : :Escape Plan
01:30:52.321 : :"Kitty, kitty, kitty"
01:32:51.482 : :Cornered
01:34:42.509 : :Auto-Destruct Initiated
01:36:26.613 : :Override Failed
01:39:25.542 : :Narcissus Escape
01:44:13.955 : :Survivors
01:47:03.666 : :"You are my lucky star"
01:53:51.073 : :End Credits



Скачать Чужой через торрент https://d.radikal.ru/d24/1904/ed/40953faac444.png Скачать, смотреть онлайн Чужой бесплантно в хорошем качестве Описание: В далеком будущем возвращающийся на Землю грузовой космический корабль перехватывает исходящий с неизвестной планеты неопознанный ... 9.3 10 4
Info! Золотая раздача, скачанное не засчитывается.
Торрент: Зарегистрирован [2019-04-10 02:50] · скачан: 47 раз
Статус: √ проверено
Размер: 46.76 GB
Как cкачать? Как скачать Чужой через торрент | UTorrent

% Раздел Тема Автор DL S | L
Сборники и Сиквелы (48-60 fps) [ 21.15 GB ] Чужие / Aliens | Чужие / Aliens | 720p / 60 fps / Theatrical cut / Квадрология Ворон Скачать
1 | 1
Ultra HD (UHD: 2K, 4K, 8K) [ 27.76 GB ] Чужой / Alien | DUB + 3xMVO + 3xAVO | 2160p sheker187 Скачать
1 | 0
Ultra HD (UHD: 2K, 4K, 8K) [ 54.19 GB ] Чужой / Alien | DUB + 3xMVO + 3xAVO | 2160p sheker187 Скачать
1 | 0
Фильмы [HD 720p, 1080p] (Хороший звук DUB, MVO) [ 9.19 GB ] Чужой: Завет / Alien: Covenant | Лицензия | 1080p, HEVC (10bit Мичман37 Скачать
1 | 0
Фильмы 2017 [DVDrip, WEB-DLRip, HDrip] (DUB, MVO) [ 5.01 GB ] Чужой: Завет / Alien: Covenant | MVO | DLRip-AVC, Dub, MVO, 5 x AVO morfyi Скачать
1 | 0
Ultra HD (UHD: 2K, 4K, 8K) [ 69.94 GB ] Чужой / Alien | DUB + 2xMVO + 6xAVO | 2160p sheker187 Скачать
1 | 0
Ultra HD (UHD: 2K, 4K, 8K) [ 20.22 GB ] Чужой: Завет / Alien: Covenant | DUB | 2160p sheker187 Скачать
1 | 1

28-11-2019 20:33  


Отключить вcю реклaмy на сайте, в т.ч. и в плеере онлайн просмотра!

    Дорогой пользователь! Огромная просьба, поблагодарите релизера, оцените раздачу и оставьте свои комментарий, если Вы скачали Чужой через торрент бесплатно!!
    Комментировать посты могут только пользователи прошедшие не сложную регистрацию
    Показать сообщения:    


    Чужой через торрент
    Скачать бесплатно Чужой
    Чужой скачать торрент
    Чужой смотреть онлайн
    Cкачать фильм Чужой бесплатно
    Чужой скачать торрент в хорошем качестве
    Чужой смотреть онлайн бесплатно в хорошем качестве
    Вы не можете начинать темы
    Вы не можете отвечать на сообщения
    Вы не можете редактировать свои сообщения
    Вы не можете удалять свои сообщения
    Вы не можете голосовать в опросах
    Вы не можете прикреплять файлы к сообщениям
    Вы можете скачивать файлы
    Чужой / Alien [1979, ужасы, фантастика, триллер, UHD BDRemux 2160p] Дубляж + 2xMVO + 5xAVO + VO [Театральная версия] смотреть онлайн, скачать торрент picoco.icu