MEGA SALE -50% FORZA HORIZON 4 ULTIMATE+ВСЕ DLC+ОНЛАЙН всего за 599р. 299 руб. (супер цена). Внимание количество ограничено!!!

iTunes

1+1

iTunes

мы

iTunes

1

iTunes

Чернобыль

iTunes

Ральф против интернета

Лицензия

ПШазам

Лицензия

Игра престолов

Лицензия

30
pack

ВАЖНО

!!Акция!!

Alien_RageХит недели

RePack

Resident Evil 21

ИГРА 18+

pack

RePack

Metro:Exodus

!!Акция!!

Alien_Rage

RePack

fifa19

RePack

Assassins Creed: Odyssey

RePack

NEED FOR SPEED™ PAYBACK

3 сезон

9 сезон

Бесстыжие 9 сезон

Все сериалы

все сериалы на PB.wtf

RePack

FAR CRY 5
Ребята, катастрофически не хватает 7730р. для оплаты серверов за АВГУСТ (всвязи с блокировками трафик упал в 3 раза), 1-2р., выручайте.
  

Потерянный остров (Денис Силяков) [2019, драма, триллер, детектив, TS 720p] piratbit.org

Потерянный остров через торрент piratbit.org

Размер: 2.49 GB | Добавлен: 5 мес. 8 д. назад | Торрент скачан:42 раза
Скачать  

10-04-2019 15:25 Потерянный остров Скачать торрент  

Потерянный остров Год выпуска: 2019
Страна: Россия
Жанр: драма, триллер, детектив
Продолжительность: 01:28:23
Перевод: Не требуется
Субтитры: отсутствуют

Режиссер: Денис Силяков

rating

В ролях:

Даниил Масленников, Наталья Фрей, Татьяна Догилева, Дмитрий Астрахан, Георгий Назаренко, Илья Ермолов, Юрий Долгинцов, Марина Черкунова

Описание:

Столичный журналист Игорь Воеводин прибывает на отдаленный дальневосточный остров, чтобы сделать репортаж о рыбацком поселении, в котором нашли своё последнее пристанище 12 человек, окружённых дикой природой в бескрайнем океане. Вскоре выясняется, что журналиста все только и ждут. Оторванный от большой земли, он оказывается во власти местных жителей и притягательной хозяйки острова.

Качество: TS 720p
Формат: MKV

Видео: h.264,3 640 Кбит/с, 1280x536
Аудио: Русский, (AC3, 2 ch, 384 Кбит/с)
скриншот  скриншот  скриншот  

Общее
Уникальный идентификатор : 222413636117617102482337161376412958842 (0xA7534EE523CCB700B9DA771C381B807A)
Полное имя : D:\Потерянный остров.2O19.O.TS.72Op.mkv
Формат : Matroska
Версия формата : Version 2
Размер файла : 2,49 Гбайт
Продолжительность : 1 ч. 28 м.
Режим общего битрейта : Переменный
Общий поток : 4026 Кбит/сек
Дата кодирования : UTC 2019-04-09 09:25:58
Программа кодирования : mkvmerge v8.3.0 ('Over the Horizon') 64bit
Библиотека кодирования : libebml v1.3.1 + libmatroska v1.4.2

Видео
Идентификатор : 1
Формат : AVC
Формат/Информация : Advanced Video Codec
Профиль формата : High@L4.1
Параметр CABAC формата : Да
Параметр RefFrames формата : 4 кадра
Идентификатор кодека : V_MPEG4/ISO/AVC
Продолжительность : 1 ч. 28 м.
Вид битрейта : Переменный
Битрейт : 3640 Кбит/сек
Максимальный битрейт : 4000 Кбит/сек
Ширина : 1280 пикселей
Высота : 536 пикселей
Соотношение сторон : 2,40:1
Режим частоты кадров : Постоянный
Частота кадров : 23,976 (24000/1001) кадра/сек
Стандарт вещания : Component
Цветовое пространство : YUV
Субдискретизация насыщенности : 4:2:0
Битовая глубина : 8 бит
Тип развёртки : Прогрессивная
Бит/(Пиксели*Кадры) : 0.217
Размер потока : 2,20 Гбайт (88%)
Default : Да
Forced : Нет
Цветовой диапазон : Limited
Основные цвета : BT.709
Характеристики трансфера : BT.709
Коэффициенты матрицы : BT.709

Аудио
Идентификатор : 2
Формат : AC-3
Формат/Информация : Audio Coding 3
Расширение режима : CM (complete main)
Параметр Endianness формата : Big
Идентификатор кодека : A_AC3
Продолжительность : 1 ч. 28 м.
Вид битрейта : Постоянный
Битрейт : 384 Кбит/сек
Каналы : 2 канала
Расположение каналов : Front: L R
Частота : 48,0 КГц
Частота кадров : 31,250 кадров/сек (1536 spf)
Метод сжатия : С потерями
Размер потока : 243 Мбайт (10%)
Default : Да
Forced : Нет

piratbit.org



Скачать Потерянный остров через торрент https://c.radikal.ru/c22/1904/68/242ee4019603.jpg Скачать фильм Потерянный остров через торрент бесплантно в хорошем качестве Описание: Столичный журналист Игорь Воеводин прибывает на отдаленный дальневосточный остров, чтобы сделать репортаж о рыбацком поселении, в ... 8.3 10 6
Торрент: Зарегистрирован [2019-04-10 15:25] · скачан: 42 раз
Статус: T временная
Размер: 2.49 GB
Как cкачать? Как скачать Потерянный остров через торрент | qTorrent

% Раздел Тема Автор DL S | L
Наши новые фильмы 2018-2019 [ 1.46 GB ] Потерянный остров [2019 WEB-DLRip] killermax2013 Скачать
6 | 0
Наши новые фильмы 2018-2019 [ 744 MB ] Потерянный остров [2019 WEB-DLRip] bober100 Скачать
1 | 0
National Geographic [ 867 MB ] Потерянные акулы острова Пасхи / Lost sharks of easter island [2011 Документальныйфауна HDTVRip 720p ] Armstrong Скачать
1 | 0
Фильмы 2009 [ 685 MB ] Гидра: потерянный остров / Hydra: The Lost Island [2009 DVDRip] Anonymous Скачать
1 | 0


>> Регистрируемся здесь <<






Отзывы и комментарии о схеме читаем и пишем здесь: ---> Отзывы и комментарии о схеме

Новые благодарочки в телеграм довольных пользователей:
скриншот   скриншот   скриншот   скриншот   скриншот

13-04-2019 09:52 Потерянный остров Скачать торрент  

порно?piratbit.org



08-05-2019 13:49 Потерянный остров Скачать торрент  

жуткую нуднотень состряпали.едва досмотрел.piratbit.org



    Дорогой пользователь! Огромная просьба, поблагодарите релизера, оцените раздачу и оставьте свои комментарий, если Вы скачали Потерянный остров через торрент бесплатно! Внесите свою лепту в развитие PiratBit!
    Комментировать посты могут только пользователи прошедшие не сложную регистрацию
    Показать сообщения:    

    Потерянный остров через торрент
    Скачать бесплатно Потерянный остров
    Потерянный остров скачать торрент
    Потерянный остров смотреть онлайн
    Cкачать фильм Потерянный остров бесплатно
    Потерянный остров скачать торрент в хорошем качестве
    Потерянный остров смотреть онлайн бесплатно в хорошем качестве


    Вы не можете начинать темы
    Вы не можете отвечать на сообщения
    Вы не можете редактировать свои сообщения
    Вы не можете удалять свои сообщения
    Вы не можете голосовать в опросах
    Вы не можете прикреплять файлы к сообщениям
    Вы можете скачивать файлы