1 сезон

3 сезон

iTunes

1

iTunes

DUB Netflix

iTunes

13

1 сезон

RePack

30

Deluxe

pack

Легкие деньги

ВАЖНО

ИГРА 18+

pack

RePack

MK11

RePack

jed

RePack

fifa19

RePack

RDR2

RePack

NEED FOR SPEED™ PAYBACK

4 сезон

9 сезон

Бесстыжие 9 сезон

Все сериалы

все сериалы на PB.wtf

RePack

FAR CRY 5

Anonymous, добрый вечер, мы не успеваем до 1 числа собрать деньги на оплату серверов, помогите нам пожалуйста в это трудное время. В качестве благодарности мы отключим Вам всю рекламу на сайте (укажите свой ник в строку Ваше имя)!

×
  
Magnet ссылка

Мертвое озеро / Сезон: 1 / Серии: 1-8 из 8 (Роман Прыгунов) [2019, Мистика, детектив, триллер, WEB-DLRip-AVC] piratbit.org

Мертвое озеро через торрент piratbit.org

Качают: 1 [ 0 KB/s ]
Размер: 7.46 GB | Добавлен: 2 года 1 мес. назад | Торрент скачан:844 раза
Скачать  

11-04-2019 02:28 Мертвое озеро Скачать торрент  

Мертвое озеро Год выпуска: 2019
Страна: Россия
Жанр: Мистика, детектив, триллер
Продолжительность: ~ 00:50:00
Субтитры: отсутствуют

Режиссер: Роман Прыгунов

rating


В ролях:

Евгений Цыганов, Павел Табаков, Александра Ребенок, Александр Робак, Андрей Смоляков, Виктор Хориняк, Павел Ворожцов, Лев Прыгунов, Тимофей Трибунцев, Полина Кутепова, Ксения Кутепова, Надежда Михалкова, Кристина Казинская, Михаил Гаврилов (II), Екатерина Семёнова, Мария Карпова, Мария Перн, Кирилл Полухин

Описание:

Владелец урановых родников Юрий Кобрин — царь и Бог в родном Чангадане. Его бизнес идет в гору и кажется, что ничто не может ему помешать. Но однажды дочь олигарха находят мертвой — кто-то использовал ее для обряда ритуального жертвоприношения. Чтобы найти убийцу, Кобрин выписывает из Москвы лучшего детектива — Максима Покровского. То, с чем сталкивается столичный следователь в маленьком северном городке, бросает вызов всему, на что он опирался в своей работе. Покровскому предстоит разобраться в сложном клубке из криминала, корпоративных интриг и мрачных тайн семейства Кобриных.

Качество: WEB-DLRip-AVC
Формат: MKV

Видео: MPEG-4 AVC, ~ 2500 Кбит/с, 1024x432, 25 кадр/с
Аудио: 48 kHz, AC3, 2/0 (L,R) ch, ~192 kbps
скриншот  скриншот  скриншот  скриншот  

Общее
Уникальный идентификатор : 189168191784982908250830455731420651863 (0x8E5077F02B1AC79BA911A58D662BE157)
Полное имя : D:\Mertvoje.ozero.2018.WEB-DLRip.(AVC).Nikolspup\Mertvoje.ozero.(01.seriya).2018.WEB-DLRip.(AVC).Nikolspup.mkv
Формат : Matroska
Версия формата : Version 4 / Version 2
Размер файла : 1014 Мбайт
Продолжительность : 52 м. 42 с.
Общий поток : 2691 Кбит/сек
Дата кодирования : UTC 2019-03-13 17:29:46
Программа кодирования : mkvmerge v7.8.0 ('River Man') 32bit built on Mar 27 2015 16:18:02
Библиотека кодирования : libebml v1.3.1 + libmatroska v1.4.2

Видео
Идентификатор : 1
Формат : AVC
Формат/Информация : Advanced Video Codec
Профиль формата : High@L4.1
Параметр CABAC формата : Да
Параметр RefFrames формата : 10 кадров
Идентификатор кодека : V_MPEG4/ISO/AVC
Продолжительность : 52 м. 42 с.
Битрейт : 2500 Кбит/сек
Ширина : 1024 пикселя
Высота : 432 пикселя
Соотношение сторон : 2,40:1
Режим частоты кадров : Постоянный
Частота кадров : 25,000 кадров/сек
Цветовое пространство : YUV
Субдискретизация насыщенности : 4:2:0
Битовая глубина : 8 бит
Тип развёртки : Прогрессивная
Бит/(Пиксели*Кадры) : 0.226
Размер потока : 941 Мбайт (93%)
Библиотека кодирования : x264 core 146 r2538 121396c
Настройки программы : cabac=1 / ref=10 / deblock=1:-2:-1 / analyse=0x3:0x133 / me=umh / subme=9 / psy=1 / psy_rd=1.00:0.20 / mixed_ref=1 / me_range=32 / chroma_me=1 / trellis=2 / 8x8dct=1 / cqm=0 / deadzone=21,11 / fast_pskip=1 / chroma_qp_offset=-3 / threads=12 / lookahead_threads=6 / sliced_threads=0 / nr=0 / decimate=1 / interlaced=0 / bluray_compat=0 / constrained_intra=0 / bframes=12 / b_pyramid=2 / b_adapt=2 / b_bias=0 / direct=1 / weightb=1 / open_gop=0 / weightp=2 / keyint=250 / keyint_min=25 / scenecut=40 / intra_refresh=0 / rc=2pass / mbtree=0 / bitrate=2500 / ratetol=1.0 / qcomp=0.60 / qpmin=0 / qpmax=69 / qpstep=4 / cplxblur=20.0 / qblur=0.5 / ip_ratio=1.40 / pb_ratio=1.30 / aq=3:1.00
Default : Нет
Forced : Нет
Цветовой диапазон : Limited
Основные цвета : BT.709
Характеристики трансфера : BT.709
Коэффициенты матрицы : BT.709

Аудио
Идентификатор : 2
Формат : AC-3
Формат/Информация : Audio Coding 3
Расширение режима : CM (complete main)
Параметр Endianness формата : Big
Идентификатор кодека : A_AC3
Продолжительность : 52 м. 42 с.
Вид битрейта : Постоянный
Битрейт : 192 Кбит/сек
Каналы : 2 канала
Расположение каналов : Front: L R
Частота : 48,0 КГц
Частота кадров : 31,250 кадров/сек (1536 spf)
Метод сжатия : С потерями
Размер потока : 72,4 Мбайт (7%)
Язык : Russian
Default : Да
Forced : Да

Внимание! Раздача ведётся путём добавления новых серий; при каждом добавлении создаётся новый торрент.
Чтобы начать докачку новой серии, пользователям необходимо сделать следующее:
1. Остановить скачивание;
2. Удалить старый торрент у себя из клиента (старые серии удалять не надо);
3. Скачать новый торрент и запустить его у себя в клиенте вместо старого, при этом указать клиенту путь в старую папку куда и должно происходить скачивание новых серий. Ваш клиент при этом должен произвести хеширование (проверку) старой папки и будет докачивать только те серии, которых у вас ещё нет. Старые серии при этом не удаляются, а продолжают раздаваться! Eсли вы уже удалили старые серии, то предотвратить повторную закачку старых серий можно, отжав галочку в соответствующих местах при запуске нового торрента.
piratbit.org



Скачать Мертвое озеро через торрент http://img16.lostpic.net/2019/03/13/6e85a501c15e178faaadbc1bb07b2e86.jpg Скачать фильм Мертвое озеро через торрент бесплантно в хорошем качестве Описание: Владелец урановых родников Юрий Кобрин — царь и Бог в родном Чангадане. Его бизнес идет в гору и кажется, что ничто не может ему ... 9.8 10 11
Info! Золотая раздача, скачанное не засчитывается.
Торрент: Зарегистрирован [2019-04-25 05:39] · скачан: 844 раз
Статус: √ проверено
Размер: 7.46 GB
Как cкачать? Как скачать Мертвое озеро через торрент | UTorrent

% Раздел Тема Автор DL S | L
TNT serials [ 13.45 GB ] Мертвое озеро / Сезон: 1 / Серии: 1-8 из 8 [2019 WEB-DL 1080p] bober100 Скачать
2 | 0
TNT serials [ 9.59 GB ] Мертвое озеро / Сезон: 1 / Серии: 1-8 из 8 [2019 WEB-DL 720p] bober100 Скачать
1 | 0
TNT serials [ 4.69 GB ] Мертвое озеро / Сезон: 1 / Серии: 1-8 из 8 [2019 WEB-DLRip] bober100 Скачать
3 | 0

28-11-2019 20:33  

Отключить всю рекламу на сайте

11-05-2019 10:46 Мертвое озеро Скачать торрент  

муть.трата времени.piratbit.org



05-07-2019 14:27 Мертвое озеро Скачать торрент  

Kaktuz762 писал(а):

муть.трата времени.

Иди трансформеры смотри.

P.s Фильм очень тяжелый.Снят прекрасно но смотрится с натягом.Концовка лично для меня почему то заранее была понятна.piratbit.org



    Дорогой пользователь! Огромная просьба, поблагодарите релизера, оцените раздачу и оставьте свои комментарий, если Вы скачали Мертвое озеро через торрент бесплатно! Внесите свою лепту в развитие PiratBit!
    Комментировать посты могут только пользователи прошедшие не сложную регистрацию
    Показать сообщения:    

    Мертвое озеро через торрент
    Скачать бесплатно Мертвое озеро
    Мертвое озеро скачать торрент
    Мертвое озеро смотреть онлайн
    Cкачать фильм Мертвое озеро бесплатно
    Мертвое озеро скачать торрент в хорошем качестве
    Мертвое озеро смотреть онлайн бесплатно в хорошем качестве


    Вы не можете начинать темы
    Вы не можете отвечать на сообщения
    Вы не можете редактировать свои сообщения
    Вы не можете удалять свои сообщения
    Вы не можете голосовать в опросах
    Вы не можете прикреплять файлы к сообщениям
    Вы можете скачивать файлы