Доктор Стрэндж

Лицензия

Добыча

MVO

Дом дракона

1 сезон

Тор

Лицензия

Мэверик

Лицензия

Там, где раки поют

MVO

Властелин колец

1 сезон

Ultimate

pack

Рекомендуем

30

Repack

ВАЖНО

ВАЖНО

Ghostwire

RePack

jed

RePack

nioh2

RePack

RDR2

RePack

NEED FOR SPEED™ PAYBACK

RePack

скачать торрент

Кинопоиск HD

Острые козырьки 6 сезон

6 сезон

FAR CRY 6

RePack

скачать торрент

Лицензия

скачать торрент

MVO

1

1 сезон

скачать торрент

1 сезон

скачать торрент

Лицензия

  

Именем революции (Генрих Габай) [1963, СССР, драма, VHSRip от AVP Studio]

Именем революции через торрент piratbit.org

Размер: 1.09 GB | Добавлен: 3 года 5 мес. назад | Торрент скачан:2 раза
Смотреть онлайн | Скачать   

11-04-2019 07:23 Именем революции Скачать торрент  

Именем революции
Страна: СССР
Производство: Мосфильм

Жанр: драма
Год выпуска: 1963
Продолжительность: 01:22:33

Перевод: Не требуется
Cубтитры: нет
Оригинальная аудиодорожка: русский

Режиссер: Генрих Габай

В ролях:
Борис Смирнов, Анатолий Ромашин, Алексей Батенин, Рафик Сабиров, Владимир Борисычев, Алексей Алексеев, Валерий Денисов (III), Белла Манякина, Лариса Гордейчик, Павел Иванов, Валерий Головненков, Михаил Глузский, Борис Битюков, Сергей Десницкий, Лидия Смирнова, Пётр Любешкин, Мария Андрианова...
Об актёрах подробней

Описание:
По одноименной пьесе М.Шатрова.
1918 год. После смерти матери отец решает отвезти детей в Москву к дальней родственнице. По дороге ребята переживают налет белогвардейской банды на поезд, гибель отца, знакомятся с беспризорником Яшкой, который везет Ленину план — как в один день уничтожить всех буржуев и всю контру. Мальчики приобщаются к революционным событиям, а впереди — Москва, случайная встреча и разговор с Лениным и Дзержинским, борьба с контрреволюцией...

Исходник: VHS
Качество видео: VHSRip
Формат видео: AVI

Видео: 720x544 (4:3), 25,000 кадров/сек, XviD ~ 1687 kbps avg, 0.172 bit/pixel
Аудио: 48 kHz, Dolby Digital AC3 2.0, 192 kbps

Раздача от:
Общее
Полное имя : Imenem.revolyucii.1963.VHSRip_[New-team]_by_AVP_Studio.avi
Формат : AVI
Формат/Информация : Audio Video Interleave
Размер файла : 1,09 Гбайт
Продолжительность : 1 ч. 22 м.
Общий поток : 1889 Кбит/сек
Программа кодирования : VirtualDubMod 1.5.10.3 | www.virtualdub-fr.org || (build 2550/release)
Библиотека кодирования : VirtualDubMod build 2550/release

Видео
Идентификатор : 0
Формат : MPEG-4 Visual
Профиль формата : Advanced Simple@L5
Настройки формата : BVOP1 / Custom Matrix
Параметр BVOP формата : 1
Параметр QPel формата : Нет
Параметр GMC формата : Без точки перехода
Параметр матрицы формата : Выборочная
Идентификатор кодека : XVID
Идентификатор кодека/Подсказка : XviD
Продолжительность : 1 ч. 22 м.
Битрейт : 1687 Кбит/сек
Ширина : 720 пикселей
Высота : 544 пикселя
Соотношение сторон : 4:3
Частота кадров : 25,000 кадров/сек
Цветовое пространство : YUV
Субдискретизация насыщенности : 4:2:0
Битовая глубина : 8 бит
Тип развёртки : Прогрессивная
Метод сжатия : С потерями
Бит/(Пиксели*Кадры) : 0.172
Размер потока : 996 Мбайт (89%)
Библиотека кодирования : XviD 73

Аудио
Идентификатор : 1
Формат : AC-3
Формат/Информация : Audio Coding 3
Коммерческое название : Dolby Digital
Идентификатор кодека : 2000
Продолжительность : 1 ч. 22 м.
Вид битрейта : Постоянный
Битрейт : 192 Кбит/сек
Каналы : 2 канала
Channel layout : L R
Частота : 48,0 КГц
Частота кадров : 31,250 кадров/сек (1536 SPF)
Битовая глубина : 16 бит
Метод сжатия : С потерями
Размер потока : 113 Мбайт (10%)
Выравнивание : Разделение по промежуткам
Продолжительность промежутка : 40 мс. (1,00 видеокадр)
Время предзагрузки промежутка : 500 мс



Скачать Именем революции через торрент http://picplus.ru/img/1904/11/c0370e81.png Скачать, смотреть онлайн Именем революции бесплантно в хорошем качестве Описание:По одноименной пьесе М.Шатрова.1918 год. После смерти матери отец решает отвезти детей в Москву к дальней родственнице. По дороге ... 5 10 1
Info! Золотая раздача, скачанное не засчитывается.
Торрент: Зарегистрирован [2019-04-11 07:23] · скачан: 2 раз
Статус: √ проверено
Размер: 1.09 GB
Как cкачать? Как скачать Именем революции через торрент | UTorrent

% Раздел Тема Автор DL S | L
Кино СССР [ 1.09 GB ] Именем революции | | Именем революции (Генрих Габай AVP Studio Скачать
1 | 0

28-11-2019 20:33  


Отключить вcю реклaмy на сайте, в т.ч. и в плеере онлайн просмотра!

    Дорогой пользователь! Огромная просьба, поблагодарите релизера, оцените раздачу и оставьте свои комментарий, если Вы скачали Именем революции через торрент бесплатно!!
    Комментировать посты могут только пользователи прошедшие не сложную регистрацию
    Показать сообщения:    


    Именем революции через торрент
    Скачать бесплатно Именем революции
    Именем революции скачать торрент
    Именем революции смотреть онлайн
    Cкачать фильм Именем революции бесплатно
    Именем революции скачать торрент в хорошем качестве
    Именем революции смотреть онлайн бесплатно в хорошем качестве
    Вы не можете начинать темы
    Вы не можете отвечать на сообщения
    Вы не можете редактировать свои сообщения
    Вы не можете удалять свои сообщения
    Вы не можете голосовать в опросах
    Вы не можете прикреплять файлы к сообщениям
    Вы можете скачивать файлы