Наша группа ВК в очередной раз забанена мы уходим в Телеграм, присоединяйтесь!!!

Лицензия

30

iTunes

мы

iTunes

1

1 сезон

Чернобыль

iTunes

1+1

iTunes

Закатать в асфальт

8 сезон

Игра престолов

1 сезон

Ральф против интернета

ИГРА 18+

pack

ВАЖНО

!!Акция!!

Alien_RageХит недели

RePack

Resident Evil 21
pack

RePack

Metro:Exodus

!!Акция!!

Alien_Rage

RePack

fifa19

RePack

Assassins Creed: Odyssey

RePack

NEED FOR SPEED™ PAYBACK

3 сезон

9 сезон

Бесстыжие 9 сезон

Все сериалы

все сериалы на PB.wtf

RePack

FAR CRY 5
Ребята, катастрофически не хватает 2730р. для оплаты серверов за АПРЕЛЬ (всвязи с блокировками трафик упал в 3 раза), 1-2р., выручайте.
  

Человек-паук: Через вселенные / Spider-Man: Into the Spider-Verse (Боб Персичетти, Питер Рэмзи, Родни Ротман) [2018, мультфильм, фантастика, боевик, комедия, приключения, семейный, BD Remux 1080p] [Локализованная версия] DUB (rus, ukr) [Лицензия] piratbit.org

Человек-паук: Через вселенные через торрент piratbit.org

Раздают: 1 [ 0 KB/s ]
Размер: 20.57 GB | Добавлен: 1 мес. 13 д. назад | Торрент скачан:25 раз
Скачать  

11-04-2019 13:46 Человек-паук: Через вселенные Скачать торрент  

Человек-паук: Через вселенные / Spider-Man: Into the Spider-Verse
Год выпуска: 2018
Страна: США
Жанр: мультфильм, фантастика, боевик, комедия, приключения, семейный
Продолжительность: 01:56:50
Перевод: Дублированный | Лицензия
Субтитры: Русские (Forced, full), украинские (Full), английские

Режиссер: Боб Персичетти, Питер Рэмзи, Родни Ротман

rating

В ролях:

Шамеик Мур (Miles Morales, озвучка), Джейк Джонсон (Peter B. Parker, озвучка), Хейли Стайнфелд (Gwen Stacy, озвучка), Махершала Али (Uncle Aaron, озвучка), Брайан Тайри Генри (Jefferson Davis, озвучка), Лили Томлин (Aunt May, озвучка), Луна Лорен Велес (Rio Morales, озвучка), Зои Кравиц (Mary Jane, озвучка), Джон Малэйни (Spider-Ham, озвучка), Кимико Гленн (Peni Parker, озвучка), Николас Кейдж (Spider-Man Noir, озвучка), Кэтрин Хан (Doc Ock, озвучка)
Описание:

Мы всё знаем о Питере Паркере. Он спас город, влюбился, а потом спасал город снова и снова... Но все это - в нашем измерении. А что если в результате работы гигантского коллайдера откроется окно из одного измерения в другое? Найдется ли в нем свой Человек-паук? И как он будет выглядеть? Приготовьтесь к тому, что в разных вселенных могут быть разные Люди-пауки и однажды им придется собраться вместе для борьбы с почти непобедимым врагом.

Качество: BD Remux 1080p | Локализованная версия
Формат: MKV

Видео: MPEG-4 AVC, 21.6 Mbit/s, 23.976 fps
Аудио#1: 48 kHz, AC3, 5.1, 640 Kbps | Дублированный | RUS |
Аудио#2: 48 kHz, AC3, 5.1, 640 Kbps | Дублированный | UKR |
Аудио#3: 48 kHz, DTS-HD MA , 5.1, 2335 Kbps | Оригинал | ENG |
скриншот  скриншот  скриншот  скриншот  скриншот  

General
Unique ID : 79539206022741596209397948334384847340 (0x3BD6B1A104C0DC94528DECC9401B99EC)
Complete name : D:Video111Spider-Man.Into.the.Spider-Verse.2018.Local.BDREMUX.1080p.seleZen.mkv
Format : Matroska
Format version : Version 4
File size : 20.6 GiB
Duration : 1 h 56 min
Overall bit rate mode : Variable
Overall bit rate : 25.2 Mb/s
Movie name : Spider-Man.Into the Spider-Verse 2018 from селезень
Encoded date : UTC 2019-04-12 08:15:25
Writing application : mkvmerge v32.0.0 ('Astral Progressions') 64-bit
Writing library : libebml v1.3.7 + libmatroska v1.5.0

Video
ID : 1
Format : AVC
Format/Info : Advanced Video Codec
Format profile : High@L4.1
Format settings : CABAC / 2 Ref Frames
Format settings, CABAC : Yes
Format settings, ReFrames : 2 frames
Format settings, GOP : M=1, N=10
Codec ID : V_MPEG4/ISO/AVC
Duration : 1 h 56 min
Bit rate mode : Variable
Bit rate : 21.6 Mb/s
Width : 1 920 pixels
Height : 1 080 pixels
Display aspect ratio : 16:9
Frame rate mode : Constant
Frame rate : 23.976 (24000/1001) FPS
Color space : YUV
Chroma subsampling : 4:2:0
Bit depth : 8 bits
Scan type : Progressive
Bits/(Pixel*Frame) : 0.434
Stream size : 17.6 GiB (86%)
Language : English
Default : Yes
Forced : No

Audio #1
ID : 2
Format : AC-3
Format/Info : Audio Coding 3
Commercial name : Dolby Digital
Codec ID : A_AC3
Duration : 1 h 56 min
Bit rate mode : Constant
Bit rate : 640 kb/s
Channel(s) : 6 channels
Channel layout : L R C LFE Ls Rs
Sampling rate : 48.0 kHz
Frame rate : 31.250 FPS (1536 SPF)
Bit depth : 16 bits
Compression mode : Lossy
Stream size : 535 MiB (3%)
Title : Dub [License]
Language : Russian
Service kind : Complete Main
Default : Yes
Forced : Yes

Audio #2
ID : 3
Format : AC-3
Format/Info : Audio Coding 3
Commercial name : Dolby Digital
Codec ID : A_AC3
Duration : 1 h 56 min
Bit rate mode : Constant
Bit rate : 640 kb/s
Channel(s) : 6 channels
Channel layout : L R C LFE Ls Rs
Sampling rate : 48.0 kHz
Frame rate : 31.250 FPS (1536 SPF)
Bit depth : 16 bits
Compression mode : Lossy
Stream size : 535 MiB (3%)
Title : Dub [License]
Language : Ukrainian
Service kind : Complete Main
Default : No
Forced : No

Audio #3
ID : 4
Format : DTS XLL
Format/Info : Digital Theater Systems
Commercial name : DTS-HD Master Audio
Codec ID : A_DTS
Duration : 1 h 56 min
Bit rate mode : Variable
Bit rate : 2 335 kb/s
Channel(s) : 6 channels
Channel layout : C L R Ls Rs LFE
Sampling rate : 48.0 kHz
Frame rate : 93.750 FPS (512 SPF)
Bit depth : 16 bits
Compression mode : Lossless
Stream size : 1.91 GiB (9%)
Title : Original
Language : English
Default : No
Forced : No

Text #1
ID : 5
Format : UTF-8
Codec ID : S_TEXT/UTF8
Codec ID/Info : UTF-8 Plain Text
Duration : 1 h 42 min
Bit rate : 0 b/s
Count of elements : 16
Stream size : 655 Bytes (0%)
Title : Forced
Language : Russian
Default : Yes
Forced : Yes

Text #2
ID : 6
Format : UTF-8
Codec ID : S_TEXT/UTF8
Codec ID/Info : UTF-8 Plain Text
Duration : 1 h 55 min
Bit rate : 82 b/s
Count of elements : 1467
Stream size : 70.3 KiB (0%)
Title : Full
Language : Russian
Default : No
Forced : No

Text #3
ID : 7
Format : UTF-8
Codec ID : S_TEXT/UTF8
Codec ID/Info : UTF-8 Plain Text
Duration : 1 h 55 min
Bit rate : 81 b/s
Count of elements : 1468
Stream size : 68.9 KiB (0%)
Title : Full
Language : Ukrainian
Default : No
Forced : No

Text #4
ID : 8
Format : UTF-8
Codec ID : S_TEXT/UTF8
Codec ID/Info : UTF-8 Plain Text
Duration : 1 h 55 min
Bit rate : 54 b/s
Count of elements : 1389
Stream size : 46.4 KiB (0%)
Title : Full
Language : English
Default : No
Forced : No

Menu
00:00:00.000 : ru:Глава 01
00:09:03.793 : ru:Глава 02
00:14:04.719 : ru:Глава 03
00:18:51.714 : ru:Глава 04
00:29:39.027 : ru:Глава 05
00:34:14.636 : ru:Глава 06
00:40:34.432 : ru:Глава 07
00:44:22.827 : ru:Глава 08
00:48:06.884 : ru:Глава 09
00:58:45.855 : ru:Глава 10
01:06:04.460 : ru:Глава 11
01:09:55.483 : ru:Глава 12
01:20:00.003 : ru:Глава 13
01:24:54.923 : ru:Глава 14
01:33:33.399 : ru:Глава 15
01:55:26.920 : ru:Глава 16

piratbit.org



Скачать Человек-паук: Через вселенные через торрент https://b.radikal.ru/b40/1903/83/60f4bf0efc82.jpg Скачать фильм Человек-паук: Через вселенные через торрент бесплантно в хорошем качестве Описание: Мы всё знаем о Питере Паркере. Он спас город, влюбился, а потом спасал город снова и снова... Но все это - в нашем измерении. А ... 10 10 3
Торрент: Зарегистрирован [2019-04-12 08:33] · скачан: 25 раз
Статус: √ проверено
Размер: 20.57 GB
Как cкачать? Как скачать Человек-паук: Через вселенные через торрент | qTorrent

% Раздел Тема Автор DL S | L
Мультфильмы (48-60 fps) [ 17.86 GB ] Человек-паук: Через вселенные / Spider-Man: Into the Spider-Verse [2018 мультфильм BDRip 1080p 60 fps] sheker187 Скачать
2 | 0
Зарубежные Мультфильмы (BDRip 1080p, 720p, Blu-ray, BD-Remux) [ 5.76 GB ] Человек-паук: Через вселенные / Spider-Man: Into the Spider-Verse [2018 мультфильм BDRip 720p] [Локализованная версия] DUB [] - ExKin Enigma2010 Скачать
34 | 0
Ultra HD (UHD: 2K, 4K, 8K) [ 26.09 GB ] Человек-паук: Через вселенные / Spider-Man: Into the Spider-Verse [2018 мультфильм UHD BDRip 2160p] [SDR] DUB [] sheker187 Скачать
2 | 0
Иностранные мультфильмы [ 1.46 GB ] Человек-паук: Через вселенные / Spider-Man: Into the Spider-Verse [2018 мультфильм BDRip] - [] [Локализованная версия] Twi7ter Скачать
7 | 0
Ultra HD (UHD: 2K, 4K, 8K) [ 16.3 GB ] Человек-паук: Через вселенные / Spider-Man: Into the Spider-Verse [2018 мультфильм UHD BDRip 2160p] DUB [] sheker187 Скачать
1 | 0
3D Мультфильмы [ 14.62 GB ] Человек-паук: Через вселенные 3Д / Spider-Man: Into the Spider-Verse 3D [2018 мультфильм BDRip 1080p] [Half OverUnder / Вертикальная анаморфная стереопара] DUB [] bober100 Скачать
2 | 0
Иностранные мультфильмы [ 2.18 GB ] Человек-паук: Через вселенные / Spider-Man: Into the Spider-Verse [2018 мультфильм BDRip] - [] [Локализованная версия] Twi7ter Скачать
2 | 0


>> Регистрируемся здесь <<






Отзывы и комментарии о схеме читаем и пишем здесь: ---> Отзывы и комментарии о схеме

Новые благодарочки в телеграм довольных пользователей:
скриншот   скриншот   скриншот   скриншот   скриншот
    Дорогой пользователь! Огромная просьба, поблагодарите релизера, оцените раздачу и оставьте свои комментарий, если Вы скачали Человек-паук: Через вселенные через торрент бесплатно! Внесите свою лепту в развитие PiratBit!
    Комментировать посты могут только пользователи прошедшие не сложную регистрацию
    Показать сообщения:    

    Человек-паук: Через вселенные через торрент
    Скачать бесплатно Человек-паук: Через вселенные
    Человек-паук: Через вселенные скачать торрент
    Человек-паук: Через вселенные смотреть онлайн
    Cкачать фильм Человек-паук: Через вселенные бесплатно
    Человек-паук: Через вселенные скачать торрент в хорошем качестве
    Человек-паук: Через вселенные смотреть онлайн бесплатно в хорошем качестве


    Вы не можете начинать темы
    Вы не можете отвечать на сообщения
    Вы не можете редактировать свои сообщения
    Вы не можете удалять свои сообщения
    Вы не можете голосовать в опросах
    Вы не можете прикреплять файлы к сообщениям
    Вы можете скачивать файлы