Достать ножи: Стеклянная луковица

MVO

Добыча

Дубляж

Уэнсдэй

1 сезон

Тор

Дубляж

13 клиническая

1 сезон

Жестокая ночь

MVO

Одни из нас

1 сезон

Deluxe

pack

Рекомендуем

30

Пиратка

ВАЖНО

ВАЖНО

Ghostwire

Пиратка

jed

RePack

nioh2

RePack

RDR2

RePack

NEED FOR SPEED™ PAYBACK

RePack

скачать торрент

Кинопоиск HD

Острые козырьки 6 сезон

6 сезон

FAR CRY 6

RePack

скачать торрент

Лицензия

скачать торрент

MVO

1

1 сезон

скачать торрент

1 сезон

скачать торрент

Лицензия

  

Чужой / Alien (Ридли Скотт) [1979, ужасы, фантастика, триллер, UHD BDRip 2160p] Дубляж + 3xMVO + 3xAVO [Режиссёрская версия]

Чужой через торрент piratbit.org

Размер: 27.76 GB | Добавлен: 3 года 9 мес. назад | Торрент скачан:103 раза
Смотреть онлайн | Скачать | Поддержите нас   

11-04-2019 16:07 Чужой Скачать торрент  

Чужой / Alien«В космосе твой крик никто не услышит...»
Год выпуска: 1979
Страна: Великобритания, США
Жанр: ужасы, фантастика, триллер
Продолжительность: 01:55:50
Перевод: Дублированный, профессиональный многоголосый, авторский
Субтитры: Русские, украинские, английские (SDH)
Режиссер: Ридли Скотт
В ролях:

Сигурни Уивер (Ripley), Том Скеррит (Dallas), Иэн Холм (Ash), Джон Хёрт (Kane), Гарри Дин Стэнтон (Brett), Вероника Картрайт (Lambert), Яфет Котто (Parker), Боладжи Бадеджо (Alien), Хелен Хортон (Mother, озвучка), Эдди Пауэлл (Alien, в титрах не указан)
Описание:
В далеком будущем возвращающийся на Землю грузовой космический корабль перехватывает исходящий с неизвестной планеты неопознанный сигнал. Экипаж принимает решение совершить посадку и разобраться, в чем дело. Оказавшись на планете, астронавты повсюду обнаруживают неопознанные предметы, по виду напоминающие гигантские коконы...
Рейтинг:

MPAA: R - Лицам до 17 лет обязательно присутствие взрослого
Качество: UHD BDRip 2160p
Формат: MKV
Видео: HEVC HDR, 24.6 Мбит/с, 3840x1600, 23.976 кадр/с
Аудио №1: 48 kHz, DTS, 3/2 (L,C,R,l,r) + LFE ch, ~768.00 kbps avg /RUS/ Дубляж, Blu-ray CEE
Аудио №2: 48 kHz, AC3, 3/2 (L,C,R,l,r) + LFE ch, ~448.00 kbps avg /RUS/ Дубляж, Blu-ray CEE
Аудио №3: 48 kHz/24-bit, DTS, 3/2 (L,C,R,l,r) + LFE ch, ~1536.00 kbps avg /RUS/ Многоголосый закадровый, LDV
Аудио №4: 48 kHz, AC3, 3/2 (L,C,R,l,r) + LFE ch, ~448.00 kbps avg /RUS/ Многоголосый закадровый, Киномания
Аудио №5: 48 kHz, AC3, 3/2 (L,C,R,l,r) + LFE ch, ~448.00 kbps avg /RUS/ Многоголосый закадровый, Позитив-Мультимедиа
Аудио №6: 48 kHz/24-bit, DTS, 3/2 (L,C,R,l,r) + LFE ch, ~1536.00 kbps avg /RUS/ Одноголосый закадровый, А.Гаврилов
Аудио №7: 48 kHz/24-bit, DTS, 3/2 (L,C,R,l,r) + LFE ch, ~1536.00 kbps avg /RUS/ Одноголосый закадровый, Дмитрий «Гоблин» Пучков
Аудио №8: 48 kHz/24-bit, DTS, 3/2 (L,C,R,l,r) + LFE ch, ~1536.00 kbps avg /RUS/ Одноголосый закадровый, Ю.Живов
Аудио №9: 48 kHz/24-bit, DTS, 3/2 (L,C,R,l,r) + LFE ch, ~1536.00 kbps avg /ENG/ Оригинал
Навигация по главам: есть

Включён в 2002 году в Национальный регистр фильмов.
Сатурн, 2004 год
Номинации (1):
Лучшая DVD-коллекция — «For the Alien Quadrilogy»
Оскар, 1980 год
Победитель (1):
Лучшие визуальные эффекты
Номинации (1):
Лучшие декорации
Золотой глобус, 1980 год
Номинации (1):
Лучший саундтрек
Британская академия, 1980 год
Победитель (2):
Лучший саундтрек
Лучшая работа художника-постановщика
Номинации (5):
Лучшая мужская роль второго плана (Джон Хёрт)
Лучшие костюмы
Лучший монтаж
Самый многообещающий новичок (Сигурни Уивер)
Премия имени Энтони Эскуита за достижения в создании музыки к фильму
Сатурн, 1980 год
Победитель (3):
Лучший научно-фантастический фильм
Лучший режиссер (Ридли Скотт)
Лучшая актриса второго плана (Вероника Картрайт)
Номинации (4):
Лучшая актриса (Сигурни Уивер)
Лучший сценарий
Лучшие спецэффекты
Лучший грим
Сан-Себастьян, 1979 год
Победитель (1):
Серебряная раковина за лучшую работу оператора и спецэффекты
Unique ID : 59726880096637254809744135999855424935 (0x2CEEFA8B2F59A425DC0B2A374ABA75A7)
Complete name : I:\Movies\4K\Alien.1979.DC.2160p.UHD.BluRay.X265-SpaceHD13.mkv
Format : Matroska
Format version : Version 4
File size : 27.8 GiB
Duration : 1 h 55 min
Overall bit rate : 34.3 Mb/s
Movie name : Alien.1979.DC.2160p.UHD.BluRay.X265-SpaceHD13
Encoded date : UTC 2019-04-11 12:40:06
Writing application : mkvmerge v31.0.0 ('Dolores In A Shoestand') 64-bit
Writing library : libebml v1.3.6 + libmatroska v1.4.9
Cover : Yes
Attachments : cover.png

Video
ID : 1
Format : HEVC
Format/Info : High Efficiency Video Coding
Commercial name : HDR10
Format profile : Main 10@L5.1@High
Codec ID : V_MPEGH/ISO/HEVC
Duration : 1 h 55 min
Bit rate : 24.6 Mb/s
Width : 3 840 pixels
Height : 1 600 pixels
Display aspect ratio : 2.40:1
Frame rate mode : Constant
Frame rate : 23.976 (24000/1001) FPS
Color space : YUV
Chroma subsampling : 4:2:0 (Type 2)
Bit depth : 10 bits
Bits/(Pixel*Frame) : 0.167
Stream size : 19.9 GiB (72%)
Title : Alien.1979.DC.2160p.UHD.BluRay.X265-SpaceHD13
Writing library : x265 3.0+1-ed72af837053:[Windows][MSVC 1900][64 bit] 10bit
Encoding settings : cpuid=1176575 / frame-threads=5 / numa-pools=36 / wpp / no-pmode / no-pme / no-psnr / no-ssim / log-level=2 / input-csp=1 / input-res=3840x1600 / interlace=0 / total-frames=166616 / level-idc=51 / high-tier=1 / uhd-bd=0 / ref=4 / no-allow-non-conformance / repeat-headers / annexb / aud / hrd / info / hash=0 / no-temporal-layers / no-open-gop / min-keyint=24 / keyint=240 / gop-lookahead=0 / bframes=4 / b-adapt=2 / b-pyramid / bframe-bias=0 / rc-lookahead=25 / lookahead-slices=4 / scenecut=40 / radl=0 / no-splice / no-intra-refresh / ctu=64 / min-cu-size=8 / rect / no-amp / max-tu-size=32 / tu-inter-depth=1 / tu-intra-depth=1 / limit-tu=0 / rdoq-level=2 / dynamic-rd=0.00 / no-ssim-rd / signhide / no-tskip / nr-intra=0 / nr-inter=0 / no-constrained-intra / no-strong-intra-smoothing / max-merge=3 / limit-refs=3 / limit-modes / me=3 / subme=3 / merange=57 / temporal-mvp / weightp / no-weightb / no-analyze-src-pics / deblock=-3:-3 / no-sao / no-sao-non-deblock / rd=4 / no-early-skip / rskip / no-fast-intra / no-tskip-fast / no-cu-lossless / no-b-intra / no-splitrd-skip / rdpenalty=0 / psy-rd=2.00 / psy-rdoq=1.00 / no-rd-refine / no-lossless / cbqpoffs=0 / crqpoffs=0 / rc=crf / crf=17.0 / qcomp=0.60 / qpstep=4 / stats-write=0 / stats-read=0 / vbv-maxrate=160000 / vbv-bufsize=160000 / vbv-init=0.9 / crf-max=0.0 / crf-min=0.0 / ipratio=1.40 / pbratio=1.30 / aq-mode=1 / aq-strength=1.00 / cutree / zone-count=0 / no-strict-cbr / qg-size=32 / no-rc-grain / qpmax=69 / qpmin=0 / no-const-vbv / sar=1 / overscan=0 / videoformat=5 / range=0 / colorprim=9 / transfer=16 / colormatrix=9 / chromaloc=1 / chromaloc-top=2 / chromaloc-bottom=2 / display-window=0 / master-display=G(13250,34500)B(7500,3000)R(34000,16000)WP(15635,16450)L(10000000,50) / max-cll=0,0 / min-luma=0 / max-luma=1023 / log2-max-poc-lsb=8 / vui-timing-info / vui-hrd-info / slices=1 / no-opt-qp-pps / no-opt-ref-list-length-pps / no-multi-pass-opt-rps / scenecut-bias=0.05 / no-opt-cu-delta-qp / no-aq-motion / hdr / hdr-opt / no-dhdr10-opt / no-idr-recovery-sei / analysis-reuse-level=5 / scale-factor=0 / refine-intra=0 / refine-inter=0 / refine-mv=0 / refine-ctu-distortion=0 / no-limit-sao / ctu-info=0 / no-lowpass-dct / refine-analysis-type=0 / copy-pic=1 / max-ausize-factor=1.0 / no-dynamic-refine / no-single-sei / no-hevc-aq / qp-adaptation-range=1.00
Default : Yes
Forced : No
Color range : Limited
Color primaries : BT.2020
Transfer characteristics : PQ
Matrix coefficients : BT.2020 non-constant
Mastering display color pri : Display P3
Mastering display luminance : min: 0.0050 cd/m2, max: 1000 cd/m2

Audio #1
ID : 2
Format : DTS
Format/Info : Digital Theater Systems
Codec ID : A_DTS
Duration : 1 h 55 min
Bit rate mode : Constant
Bit rate : 768 kb/s
Channel(s) : 6 channels
Channel layout : C L R Ls Rs LFE
Sampling rate : 48.0 kHz
Frame rate : 93.750 FPS (512 SPF)
Bit depth : 24 bits
Compression mode : Lossy
Stream size : 636 MiB (2%)
Title : DTS- [Дубляж]
Language : Russian
Default : Yes
Forced : No

Audio #2
ID : 3
Format : AC-3
Format/Info : Audio Coding 3
Commercial name : Dolby Digital
Codec ID : A_AC3
Duration : 1 h 55 min
Bit rate mode : Constant
Bit rate : 448 kb/s
Channel(s) : 6 channels
Channel layout : L R C LFE Ls Rs
Sampling rate : 48.0 kHz
Frame rate : 31.250 FPS (1536 SPF)
Bit depth : 16 bits
Compression mode : Lossy
Stream size : 371 MiB (1%)
Title : AC3-[Дубляж]
Language : Russian
Service kind : Complete Main
Default : No
Forced : No

Audio #3
ID : 4
Format : DTS
Format/Info : Digital Theater Systems
Codec ID : A_DTS
Duration : 1 h 55 min
Bit rate mode : Constant
Bit rate : 1 510 kb/s
Channel(s) : 6 channels
Channel layout : C L R Ls Rs LFE
Sampling rate : 48.0 kHz
Frame rate : 93.750 FPS (512 SPF)
Bit depth : 24 bits
Compression mode : Lossy
Stream size : 1.22 GiB (4%)
Title : DTS-[MVO LDV]
Language : Russian
Default : No
Forced : No

Audio #4
ID : 5
Format : AC-3
Format/Info : Audio Coding 3
Commercial name : Dolby Digital
Codec ID : A_AC3
Duration : 1 h 55 min
Bit rate mode : Constant
Bit rate : 448 kb/s
Channel(s) : 6 channels
Channel layout : L R C LFE Ls Rs
Sampling rate : 48.0 kHz
Frame rate : 31.250 FPS (1536 SPF)
Bit depth : 16 bits
Compression mode : Lossy
Stream size : 371 MiB (1%)
Title : AC3-[MVO Kinomania]
Language : Russian
Service kind : Complete Main
Default : No
Forced : No

Audio #5
ID : 6
Format : AC-3
Format/Info : Audio Coding 3
Commercial name : Dolby Digital
Codec ID : A_AC3
Duration : 1 h 55 min
Bit rate mode : Constant
Bit rate : 448 kb/s
Channel(s) : 6 channels
Channel layout : L R C LFE Ls Rs
Sampling rate : 48.0 kHz
Frame rate : 31.250 FPS (1536 SPF)
Bit depth : 16 bits
Compression mode : Lossy
Stream size : 371 MiB (1%)
Title : AC3-[MVO Pozitiv]
Language : Russian
Service kind : Complete Main
Default : No
Forced : No

Audio #6
ID : 7
Format : DTS
Format/Info : Digital Theater Systems
Codec ID : A_DTS
Duration : 1 h 55 min
Bit rate mode : Constant
Bit rate : 1 510 kb/s
Channel(s) : 6 channels
Channel layout : C L R Ls Rs LFE
Sampling rate : 48.0 kHz
Frame rate : 93.750 FPS (512 SPF)
Bit depth : 24 bits
Compression mode : Lossy
Stream size : 1.22 GiB (4%)
Title : DTS-[AVO Gavrilov]
Language : Russian
Default : No
Forced : No

Audio #7
ID : 8
Format : DTS
Format/Info : Digital Theater Systems
Codec ID : A_DTS
Duration : 1 h 55 min
Bit rate mode : Constant
Bit rate : 1 510 kb/s
Channel(s) : 6 channels
Channel layout : C L R Ls Rs LFE
Sampling rate : 48.0 kHz
Frame rate : 93.750 FPS (512 SPF)
Bit depth : 24 bits
Compression mode : Lossy
Stream size : 1.22 GiB (4%)
Title : DTS-[AVO Goblin]
Language : Russian
Default : No
Forced : No

Audio #8
ID : 9
Format : DTS
Format/Info : Digital Theater Systems
Codec ID : A_DTS
Duration : 1 h 55 min
Bit rate mode : Constant
Bit rate : 1 510 kb/s
Channel(s) : 6 channels
Channel layout : C L R Ls Rs LFE
Sampling rate : 48.0 kHz
Frame rate : 93.750 FPS (512 SPF)
Bit depth : 24 bits
Compression mode : Lossy
Stream size : 1.22 GiB (4%)
Title : DTS-[AVO Jivov]
Language : Russian
Default : No
Forced : No

Audio #9
ID : 10
Format : DTS
Format/Info : Digital Theater Systems
Codec ID : A_DTS
Duration : 1 h 55 min
Bit rate mode : Constant
Bit rate : 1 510 kb/s
Channel(s) : 6 channels
Channel layout : C L R Ls Rs LFE
Sampling rate : 48.0 kHz
Frame rate : 93.750 FPS (512 SPF)
Bit depth : 24 bits
Compression mode : Lossy
Stream size : 1.22 GiB (4%)
Title : DTS-[Original]
Language : English
Default : No
Forced : No

Text #1
ID : 11
Format : UTF-8
Codec ID : S_TEXT/UTF8
Codec ID/Info : UTF-8 Plain Text
Duration : 1 h 50 min
Bit rate : 44 b/s
Count of elements : 791
Stream size : 36.4 KiB (0%)
Title : Rus Blu-ray CEE
Language : Russian
Default : Yes
Forced : Yes

Text #2
ID : 12
Format : UTF-8
Codec ID : S_TEXT/UTF8
Codec ID/Info : UTF-8 Plain Text
Duration : 1 h 52 min
Bit rate : 51 b/s
Count of elements : 811
Stream size : 42.7 KiB (0%)
Title : Rus Goblin
Language : Russian
Default : No
Forced : No

Text #3
ID : 13
Format : UTF-8
Codec ID : S_TEXT/UTF8
Codec ID/Info : UTF-8 Plain Text
Duration : 1 h 50 min
Bit rate : 50 b/s
Count of elements : 769
Stream size : 40.6 KiB (0%)
Language : Ukrainian
Default : No
Forced : No

Text #4
ID : 14
Format : UTF-8
Codec ID : S_TEXT/UTF8
Codec ID/Info : UTF-8 Plain Text
Duration : 1 h 45 min
Bit rate : 40 b/s
Count of elements : 916
Stream size : 31.5 KiB (0%)
Language : English
Default : No
Forced : No

Text #5
ID : 15
Format : UTF-8
Codec ID : S_TEXT/UTF8
Codec ID/Info : UTF-8 Plain Text
Duration : 1 h 49 min
Bit rate : 45 b/s
Count of elements : 1047
Stream size : 36.6 KiB (0%)
Title : SDH
Language : English
Default : No
Forced : No

Menu
00:00:00.000 : en:Main Titles
00:01:59.119 : en:Auto Pilot
00:04:38.111 : en:Awakening
00:07:53.848 : en:Mu-Th-Ur
00:09:08.506 : en:Nostromo Re-Routed
00:12:38.424 : en:Locating the Source
00:14:14.103 : en:Answering the Call
00:20:03.910 : en:Walking Distance
00:23:20.649 : en:Proceeding Blindly
00:25:03.251 : en:Dark Horizons
00:27:48.875 : en:A Word of Warning
00:31:49.824 : en:Kane's Descent
00:35:30.920 : en:Surface Tension
00:37:03.179 : en:Facehugger
00:40:31.887 : en:Acid
00:43:24.518 : en:Standard Procedure
00:47:26.301 : en:The Missing Guest
00:50:04.125 : en:It Has to Go Back
00:51:42.307 : en:Long Journey Ahead
00:54:22.675 : en:The Last Supper
00:58:59.744 : en:On the Hunt
01:00:24.870 : en:"Stick Together"
01:03:34.310 : en:"Here Jonesy"
01:08:16.717 : en:"Kane's Son"
01:10:02.948 : en:Into the Air Ducts
01:12:50.407 : en:The Third Junction
01:14:31.925 : en:No Blood, No Dallas
01:17:12.711 : en:Special Order 937
01:19:00.902 : en:Ash Attacks
01:22:32.280 : en:Crew Expendable
01:26:37.233 : en:Escape Plan
01:28:47.571 : en:"Kitty, Kitty, Kitty"
01:30:46.732 : en:Cornered
01:32:37.760 : en:Auto-Destruct Initiated
01:34:21.780 : en:Mercy
01:37:43.148 : en:Override Failed
01:39:12.446 : en:Narscissus Escape
01:43:26.241 : en:Survivors
01:46:15.952 : en:"You Are My Lucky Star"
01:53:03.609 : en:End Credits



Скачать Чужой через торрент https://a.radikal.ru/a17/1904/7e/7706d0409dd3.png Скачать, смотреть онлайн Чужой бесплантно в хорошем качестве Описание: В далеком будущем возвращающийся на Землю грузовой космический корабль перехватывает исходящий с неизвестной планеты неопознанный ... 10 10 5
Info! Золотая раздача, скачанное не засчитывается.
Торрент: Зарегистрирован [2019-04-11 16:07] · скачан: 103 раз
Статус: √ проверено
Размер: 27.76 GB
Как cкачать? Как скачать Чужой через торрент | UTorrent

% Раздел Тема Автор DL S | L
Сборники и Сиквелы (48-60 fps) [ 21.15 GB ] Чужие / Aliens | Чужие / Aliens | 720p / 60 fps / Theatrical cut / Квадрология Ворон Скачать
1 | 1
Ultra HD (UHD: 2K, 4K, 8K) [ 54.19 GB ] Чужой / Alien | DUB + 3xMVO + 3xAVO | 2160p sheker187 Скачать
1 | 0
Ultra HD (UHD: 2K, 4K, 8K) [ 46.76 GB ] Чужой / Alien | DUB + 2xMVO + 5xAVO + VO | 2160p sheker187 Скачать
1 | 0
Фильмы [HD 720p, 1080p] (Хороший звук DUB, MVO) [ 9.19 GB ] Чужой: Завет / Alien: Covenant | Лицензия | 1080p, HEVC (10bit Мичман37 Скачать
1 | 0
Фильмы 2017 [DVDrip, WEB-DLRip, HDrip] (DUB, MVO) [ 5.01 GB ] Чужой: Завет / Alien: Covenant | MVO | DLRip-AVC, Dub, MVO, 5 x AVO morfyi Скачать
1 | 0
Ultra HD (UHD: 2K, 4K, 8K) [ 69.94 GB ] Чужой / Alien | DUB + 2xMVO + 6xAVO | 2160p sheker187 Скачать
2 | 0
Ultra HD (UHD: 2K, 4K, 8K) [ 20.22 GB ] Чужой: Завет / Alien: Covenant | DUB | 2160p sheker187 Скачать
1 | 0

28-11-2019 20:33  


Отключить вcю реклaмy на сайте, в т.ч. и в плеере онлайн просмотра!

11-04-2019 17:36 Чужой Скачать торрент  

Эта часть и ещё вторая - самые лучшие из "Чужих".
(ИМХО)



    Дорогой пользователь! Огромная просьба, поблагодарите релизера, оцените раздачу и оставьте свои комментарий, если Вы скачали Чужой через торрент бесплатно!!
    Комментировать посты могут только пользователи прошедшие не сложную регистрацию
    Показать сообщения:    


    Чужой через торрент
    Скачать бесплатно Чужой
    Чужой скачать торрент
    Чужой смотреть онлайн
    Cкачать фильм Чужой бесплатно
    Чужой скачать торрент в хорошем качестве
    Чужой смотреть онлайн бесплатно в хорошем качестве
    Вы не можете начинать темы
    Вы не можете отвечать на сообщения
    Вы не можете редактировать свои сообщения
    Вы не можете удалять свои сообщения
    Вы не можете голосовать в опросах
    Вы не можете прикреплять файлы к сообщениям
    Вы можете скачивать файлы
    Чужой / Alien [1979, ужасы, фантастика, триллер, UHD BDRip 2160p] Дубляж + 3xMVO + 3xAVO [Режиссёрская версия] смотреть онлайн, скачать торрент picoco.icu