MEGA SALE -50% FORZA HORIZON 4 ULTIMATE+ВСЕ DLC+ОНЛАЙН всего за 599р. 299 руб. (супер цена). Внимание количество ограничено!!!

iTunes

1+1

iTunes

мы

iTunes

1

iTunes

Чернобыль

iTunes

Ральф против интернета

Лицензия

ПШазам

Лицензия

Игра престолов

Лицензия

30
pack

ВАЖНО

!!Акция!!

Alien_RageХит недели

RePack

Resident Evil 21

ИГРА 18+

pack

RePack

Metro:Exodus

!!Акция!!

Alien_Rage

RePack

fifa19

RePack

Assassins Creed: Odyssey

RePack

NEED FOR SPEED™ PAYBACK

3 сезон

9 сезон

Бесстыжие 9 сезон

Все сериалы

все сериалы на PB.wtf

RePack

FAR CRY 5
Ребята, катастрофически не хватает 7730р. для оплаты серверов за АВГУСТ (всвязи с блокировками трафик упал в 3 раза), 1-2р., выручайте.
  

The Chemical Brothers - Don't Think (Adam Smith) [2012, Big beat, electronica, concert, BDRip 1080p] piratbit.org

The Chemical Brothers - Don't Think через торрент piratbit.org

Размер: 8.87 GB | Добавлен: 5 мес. 7 д. назад | Торрент скачан:20 раз
Скачать  

11-04-2019 18:17 The Chemical Brothers - Don't Think Скачать торрент  

The Chemical Brothers - Don't Think Год выпуска: 2012
Страна: США
Жанр: Big beat, electronica, techno, trip hop, alternative dance, neo-psychedelia, concert
Продолжительность: 01:27:36
Перевод: Оригинал
Субтитры: отсутствуют

Режиссер: Adam Smith

rating

В ролях: Tom Rowlands, Ed Simons

Описание: 31 июля 2011 года Chemical Brothers выступала на фестивале Fuji Rock в Японии перед 50 тыс. зрителями. В это же время 21 камера записывала концерт, который позже режиссер Адам Смит превратил в музыкальный фильм. «Don't Think» - психоделическое путешествие, в котором не успеешь моргнуть, как оказываешься в бурлящей толпе на горе Фуджи, в море света, звука, видео, марширующих роботов, галопирующих лошадей, стробоскопов, клоунов и, конечно, музыки.

Качество: BDRip 1080p
Формат: MKV

Видео: 1920x1080, 23.970 fps, 13.0 Mbps
Аудио: English: DTS, 1509 Kbps (6 ch)
01. Tomorrow Never Knows (intro) Junior Parker
02. Another World
03. Do it Again
04. Get Yourself High
05. Horse Power
06. Chemical Beats
07. Swoon
08. Star Guitar
09. Three Little Birdies Down Beats
10. Hey Boy Hey Girl
11. Don t Think
12. Out of Control
13. Setting Sun
14. It Doesn t Matter
15. Saturate
16. Believe
17. Escape Velocity/ The Golden Path
18. Superflash
19. Leave Home / Galvanize
20. Block Rockin Beats/ Das Spiege

скриншот  скриншот  скриншот  скриншот  скриншот  

Общее
Уникальный идентификатор : 194872190360256075238188261464890216229 (0x929B04C7D702D5CAB453161EA3850F25)
Полное имя : The.Chemical.Brothers-Don't.Think.2012.x264.BDRip.1080p.mkv
Формат : Matroska
Версия формата : Version 2
Размер файла : 8,87 Гбайт
Продолжительность : 1 ч. 27 м.
Общий поток : 14,5 Мбит/сек
Название фильма : ☭WIDDER☭
Дата кодирования : UTC 2012-06-04 08:10:26
Программа кодирования : mkvmerge v5.4.0 ('Piper') built on Mar 10 2012 13:34:39
Библиотека кодирования : libebml v1.2.3 + libmatroska v1.3.0

Видео
Идентификатор : 1
Формат : AVC
Формат/Информация : Advanced Video Codec
Профиль формата : High@L4.1
Параметр CABAC формата : Да
Параметр ReFrames формата : 4 кадра
Идентификатор кодека : V_MPEG4/ISO/AVC
Продолжительность : 1 ч. 27 м.
Битрейт : 13,0 Мбит/сек
Ширина : 1920 пикселей
Высота : 1080 пикселей
Соотношение сторон : 16:9
Частота кадров : 29,970 кадров/сек
Цветовое пространство : YUV
Субдискретизация насыщенности : 4:2:0
Битовая глубина : 8 бит
Тип развёртки : Прогрессивная
Бит/(Пиксели*Кадры) : 0.209
Размер потока : 7,77 Гбайт (88%)
Заголовок : The Chemical Brothers: Don't Think 2012
Библиотека кодирования : x264 core 120 r2164 da19765
Настройки программы : cabac=1 / ref=4 / deblock=1:-3:-3 / analyse=0x3:0x133 / me=umh / subme=10 / psy=1 / psy_rd=1.00:0.00 / mixed_ref=1 / me_range=48 / chroma_me=1 / trellis=2 / 8x8dct=1 / cqm=0 / deadzone=21,11 / fast_pskip=1 / chroma_qp_offset=-4 / threads=8 / sliced_threads=0 / nr=0 / decimate=1 / interlaced=0 / bluray_compat=0 / constrained_intra=0 / bframes=8 / b_pyramid=2 / b_adapt=2 / b_bias=0 / direct=3 / weightb=1 / open_gop=0 / weightp=2 / keyint=300 / keyint_min=27 / scenecut=40 / intra_refresh=0 / rc_lookahead=60 / rc=2pass / mbtree=1 / bitrate=13000 / ratetol=1.0 / qcomp=0.60 / qpmin=0 / qpmax=69 / qpstep=4 / cplxblur=20.0 / qblur=0.5 / vbv_maxrate=30000 / vbv_bufsize=40000 / nal_hrd=none / ip_ratio=1.40 / aq=2:0.90
Язык : English
Default : Да
Forced : Нет

Аудио
Идентификатор : 2
Формат : DTS
Формат/Информация : Digital Theater Systems
Идентификатор кодека : A_DTS
Продолжительность : 1 ч. 27 м.
Вид битрейта : Постоянный
Битрейт : 1510 Кбит/сек
Каналы : 6 каналов
Расположение каналов : Front: L C R, Side: L R, LFE
Частота : 48,0 КГц
Битовая глубина : 24 бит
Метод сжатия : С потерями
Размер потока : 946 Мбайт (10%)
Заголовок : DTS 1509K
Язык : English
Default : Да
Forced : Нет

Меню
00:00:00.000 : :Chapter 01
00:01:25.084 : :Chapter 02
00:06:13.773 : :Chapter 03
00:08:19.499 : :Chapter 04
00:09:37.576 : :Chapter 05
00:15:14.680 : :Chapter 06
00:18:54.133 : :Chapter 07
00:25:34.533 : :Chapter 08
00:29:40.478 : :Chapter 09
00:31:11.769 : :Chapter 10
00:35:11.242 : :Chapter 11
00:36:11.469 : :Chapter 12
00:40:08.939 : :Chapter 13
00:41:27.318 : :Chapter 14
00:44:46.850 : :Chapter 15
00:46:20.644 : :Chapter 16
00:49:41.111 : :Chapter 17
00:54:36.473 : :Chapter 18
00:59:31.534 : :Chapter 19
01:02:22.839 : :Chapter 20
01:11:16.705 : :Chapter 21
01:15:01.864 : :Chapter 22
01:17:15.931 : :Chapter 23
01:19:29.965 : :Chapter 24

piratbit.org



Скачать The Chemical Brothers - Don't Think через торрент http://s019.radikal.ru/i637/1206/b6/15be6f04af66.jpg Скачать фильм The Chemical Brothers - Don't Think через торрент бесплантно в хорошем качестве Описание: 31 июля 2011 года Chemical Brothers выступала на фестивале Fuji Rock в Японии перед 50 тыс. зрителями. В это же время 21 камера ... 10 10 5
Торрент: Зарегистрирован [2019-04-11 18:17] · скачан: 20 раз
Статус: √ проверено
Размер: 8.87 GB
Как cкачать? Как скачать The Chemical Brothers - Don't Think через торрент | qTorrent


>> Регистрируемся здесь <<






Отзывы и комментарии о схеме читаем и пишем здесь: ---> Отзывы и комментарии о схеме

Новые благодарочки в телеграм довольных пользователей:
скриншот   скриншот   скриншот   скриншот   скриншот
    Дорогой пользователь! Огромная просьба, поблагодарите релизера, оцените раздачу и оставьте свои комментарий, если Вы скачали The Chemical Brothers - Don't Think через торрент бесплатно! Внесите свою лепту в развитие PiratBit!
    Комментировать посты могут только пользователи прошедшие не сложную регистрацию
    Показать сообщения:    

    The Chemical Brothers - Don't Think через торрент
    Скачать бесплатно The Chemical Brothers - Don't Think
    The Chemical Brothers - Don't Think скачать торрент
    The Chemical Brothers - Don't Think смотреть онлайн
    Cкачать фильм The Chemical Brothers - Don't Think бесплатно
    The Chemical Brothers - Don't Think скачать торрент в хорошем качестве
    The Chemical Brothers - Don't Think смотреть онлайн бесплатно в хорошем качестве


    Вы не можете начинать темы
    Вы не можете отвечать на сообщения
    Вы не можете редактировать свои сообщения
    Вы не можете удалять свои сообщения
    Вы не можете голосовать в опросах
    Вы не можете прикреплять файлы к сообщениям
    Вы можете скачивать файлы