Доктор Стрэндж

Лицензия

Добыча

Дубляж

Уэнсдэй

1 сезон

Тор

Дубляж

В эфире

Дубляж

Там, где раки поют

MVO

Властелин колец

1 сезон

Deluxe

pack

Рекомендуем

30

Пиратка

ВАЖНО

ВАЖНО

Ghostwire

Пиратка

jed

RePack

nioh2

RePack

RDR2

RePack

NEED FOR SPEED™ PAYBACK

RePack

скачать торрент

Кинопоиск HD

Острые козырьки 6 сезон

6 сезон

FAR CRY 6

RePack

скачать торрент

Лицензия

скачать торрент

MVO

1

1 сезон

скачать торрент

1 сезон

скачать торрент

Лицензия

  

Инопланетное похищение / Alien Abduction (Мэтти Бекерман / Matty Beckerman) [2014, США, ужасы, фантастика, триллер, BDRip 720p,Любительский (одноголосый)[datynet], перевод [Janetta]

Инопланетное похищение через торрент piratbit.org

Размер: 4.48 GB | Добавлен: 8 лет 2 мес. назад | Торрент скачан:137 раз
Смотреть онлайн | Скачать   

11-09-2014 12:35 Инопланетное похищение Скачать торрент  

Инопланетное похищение / Alien Abduction

Год выпуска: 2014
Страна: США
Жанр: ужасы, фантастика, триллер
слова
Продолжительность: 01:25:23
Перевод: Любительский (одноголосый) [datynet], перевод [Janetta]
Субтитры: Нет
Режиссер: Мэтти Бекерман / Matty Beckerman
В ролях: Кэтрин Сигизмунд (Katie Morris), Кори Эйд (Corey Morris), Райли Полянски (Riley Morris), Джиллиан Клер (Jillian Morris), Джефф Баузер (Sean), Питер Эсли Холден (Peter Morris), Уолтер Фелан, Джордан Турчин (Officer James), Келли Хинман (Park Ranger), Бенжамин Шарплс (Agent), Daniel Caton (играет самого себя), Рик Чэмберс (Newscaster)
Описание:
Семья на отдыхе сталкивается с угрозой инопланетного вторжения. Все происходящее они исправно записывают на видеопленку. А началось все с ярких огней в ночном небе...
Рейтинг
kinopoisk.ru: 4.938 (60)
imdb.com: 4.90 (2309)
Качество: BDRip 720p
Формат: MKV
Видео кодек: AVC
Аудио кодек:AC3, DTS
Видео: AVC, 1280x720 (16:9), 5814 kbps, 23,976 fps, 0,263 bpp
Аудио №1: русский / AC3 / 2.0 / 44 kHz / 192 kbps / 16 bit ||
Аудио №2: английский / DTS / 5.1 / 48 kHz / 1510 kbps / 24 bit

General
Complete name : C:\Users\oO\Desktop\Раздачи для PIRATBIT\Alien.Abduction.2014.L1.BDRip.720p.mkv
Format : Matroska
Format version : Version 4 / Version 2
File size : 4.48 GiB
Duration : 1h 25mn
Overall bit rate : 7 516 Kbps
Encoded date : UTC 2014-09-10 12:29:28
Writing application : mkvmerge v6.1.0 ('Old Devil') built on Mar 4 2013 09:10:42
Writing library : libebml v1.3.0 + libmatroska v1.4.0
DURATION : 01:25:23.126000000
NUMBER_OF_FRAMES : 480293
NUMBER_OF_BYTES : 966349516
_STATISTICS_WRITING_APP : mkvmerge v7.1.0 ('Good Love') 32bit built on Jul 27 2014 12:59:18
_STATISTICS_WRITING_DATE_UTC : 2014-08-25 15:08:02
_STATISTICS_TAGS : BPS DURATION NUMBER_OF_FRAMES NUMBER_OF_BYTES

Video
ID : 1
Format : AVC
Format/Info : Advanced Video Codec
Format profile : High@L3.1
Format settings, CABAC : Yes
Format settings, ReFrames : 5 frames
Codec ID : V_MPEG4/ISO/AVC
Duration : 1h 25mn
Bit rate : 5 814 Kbps
Width : 1 280 pixels
Height : 720 pixels
Display aspect ratio : 16:9
Frame rate : 23.976 fps
Color space : YUV
Chroma subsampling : 4:2:0
Bit depth : 8 bits
Scan type : Progressive
Bits/(Pixel*Frame) : 0.263
Stream size : 3.38 GiB (75%)
Writing library : x264 core 142 r2453 ea0ca51
Encoding settings : cabac=1 / ref=5 / deblock=1:0:0 / analyse=0x3:0x113 / me=umh / subme=8 / psy=1 / psy_rd=1.00:0.00 / mixed_ref=1 / me_range=16 / chroma_me=1 / trellis=1 / 8x8dct=1 / cqm=0 / deadzone=21,11 / fast_pskip=1 / chroma_qp_offset=-2 / threads=6 / lookahead_threads=1 / sliced_threads=0 / nr=0 / decimate=1 / interlaced=0 / bluray_compat=0 / constrained_intra=0 / bframes=3 / b_pyramid=2 / b_adapt=2 / b_bias=0 / direct=3 / weightb=1 / open_gop=0 / weightp=2 / keyint=240 / keyint_min=24 / scenecut=40 / intra_refresh=0 / rc_lookahead=50 / rc=2pass / mbtree=1 / bitrate=5814 / ratetol=1.0 / qcomp=0.60 / qpmin=0 / qpmax=69 / qpstep=4 / cplxblur=20.0 / qblur=0.5 / ip_ratio=1.40 / aq=1:1.00
Language : English
Default : Yes
Forced : No
DURATION : 01:25:23.118000000
NUMBER_OF_FRAMES : 122832
NUMBER_OF_BYTES : 3722441263
_STATISTICS_WRITING_APP : mkvmerge v7.1.0 ('Good Love') 32bit built on Jul 27 2014 12:59:18
_STATISTICS_WRITING_DATE_UTC : 2014-08-25 15:08:02
_STATISTICS_TAGS : BPS DURATION NUMBER_OF_FRAMES NUMBER_OF_BYTES

Audio #1
ID : 2
Format : AC-3
Format/Info : Audio Coding 3
Mode extension : CM (complete main)
Codec ID : A_AC3
Duration : 1h 25mn
Bit rate mode : Constant
Bit rate : 192 Kbps
Channel(s) : 2 channels
Channel positions : Front: L R
Sampling rate : 44.1 KHz
Bit depth : 16 bits
Compression mode : Lossy
Stream size : 117 MiB (3%)
Language : Russian
Default : Yes
Forced : No

Audio #2
ID : 3
Format : DTS
Format/Info : Digital Theater Systems
Codec ID : A_DTS
Duration : 1h 25mn
Bit rate mode : Constant
Bit rate : 1 510 Kbps
Channel(s) : 6 channels
Channel positions : Front: L C R, Side: L R, LFE
Sampling rate : 48.0 KHz
Bit depth : 24 bits
Compression mode : Lossy
Stream size : 922 MiB (20%)
Language : English
Default : No
Forced : No



Скачать Инопланетное похищение через торрент http://i63.fastpic.ru/big/2014/0911/9a/eb913aa8dd277d98ca64ccfad8cb3e9a.jpg Скачать, смотреть онлайн Инопланетное похищение бесплантно в хорошем качестве Описание: Семья на отдыхе сталкивается с угрозой инопланетного вторжения. Все происходящее они исправно записывают на видеопленку. А ... 10 10 4
Торрент: Зарегистрирован [2014-09-11 12:35] · скачан: 137 раз
Статус: T временная
Размер: 4.48 GB
Как cкачать? Как скачать Инопланетное похищение через торрент | UTorrent

28-11-2019 20:33  


Отключить вcю реклaмy на сайте, в т.ч. и в плеере онлайн просмотра!

08-09-2017 09:10 Инопланетное похищение Скачать торрент  

есть кто живой,встанте пожалуйста на раздачу



    Дорогой пользователь! Огромная просьба, поблагодарите релизера, оцените раздачу и оставьте свои комментарий, если Вы скачали Инопланетное похищение через торрент бесплатно!!
    Комментировать посты могут только пользователи прошедшие не сложную регистрацию
    Показать сообщения:    


    Инопланетное похищение через торрент
    Скачать бесплатно Инопланетное похищение
    Инопланетное похищение скачать торрент
    Инопланетное похищение смотреть онлайн
    Cкачать фильм Инопланетное похищение бесплатно
    Инопланетное похищение скачать торрент в хорошем качестве
    Инопланетное похищение смотреть онлайн бесплатно в хорошем качестве
    Вы не можете начинать темы
    Вы не можете отвечать на сообщения
    Вы не можете редактировать свои сообщения
    Вы не можете удалять свои сообщения
    Вы не можете голосовать в опросах
    Вы не можете прикреплять файлы к сообщениям
    Вы можете скачивать файлы
    Инопланетное похищение / Alien Abduction [2014, США, ужасы, фантастика, триллер, BDRip 720p,Любительский [datynet], перевод [Janetta] смотреть онлайн, скачать торрент picoco.icu