Наша группа ВК в очередной раз забанена мы уходим в Телеграм, присоединяйтесь!!!

Лицензия

30

iTunes

Как приручить дракона 3

iTunes

1

1 сезон

Чернобыль

iTunes

Снегоуборщик

iTunes

Закатать в асфальт

8 сезон

Игра престолов

iTunes

Ральф против интернета Хит недели

ИГРА 18+

pack

ВАЖНО

!!Акция!!

Alien_RageХит недели

RePack

Resident Evil 21
pack

RePack

Metro:Exodus

!!Акция!!

Alien_Rage

RePack

fifa19

RePack

Assassins Creed: Odyssey

RePack

NEED FOR SPEED™ PAYBACK

3 сезон

9 сезон

Бесстыжие 9 сезон

Все сериалы

все сериалы на PB.wtf

RePack

FAR CRY 5
Ребята, катастрофически не хватает 2730р. для оплаты серверов за АПРЕЛЬ (всвязи с блокировками трафик упал в 3 раза), 1-2р., выручайте.
  

Уральские Пельмени - Шубный приговор [эфир от 12.04] [2019, ТВ-шоу, юмор,, WEBRip 720p] piratbit.org

Уральские Пельмени - Шубный приговор через торрент piratbit.org

Раздают: 3 [ 0 KB/s ]
Размер: 1.19 GB | Добавлен: 1 мес. 9 д. назад | Торрент скачан:148 раз
Скачать  

13-04-2019 17:08 Уральские Пельмени - Шубный приговор Скачать торрент  

Уральские Пельмени - Шубный приговор [эфир от 12.04] Год выпуска: 2019
Страна: Россия
Жанр: ТВ-шоу, юмор,
Продолжительность: ~ 01:13:00
Перевод: Не требуется
Субтитры: отсутствуют

В ролях:

Дмитрий Брекоткин, Сергей Ершов, Сергей Исаев, Сергей Калугин, Вячеслав Мясников, Александр Попов, Андрей Рожков, Дмитрий Соколов (V), Максим Ярица, Юлия Михалкова, Стефания-Марьяна Гурская, Илана Юрьева, Ксения Корнева

Описание:

Они знают все скамейки возле бутиков! Больше всего они радуются, когда жене есть чего надеть. Смс по их банковским картам для них всегда неожиданность. Они всю жизнь таскают пакеты: из дома с мусором, в дом с женскими вещами. И они точно знают, зачем в природе пушные звери. Они вынесут свой «ШУБНЫЙ ПРИГОВОР»

Качество: WEBRip 720p
Формат: MKV

Видео: MPEG-4 AVC, ~ 2090 Кбит/с, 1280x720
Аудио: AC3, 2 ch, 192 Кбит/с
скриншот   скриншот   скриншот   скриншот  

Полное имя : G:\Шубный приговор. Уральские пельмени (12.04.2019).mkv
Формат : Matroska
Версия формата : Version 4
Размер файла : 1,19 Гбайт
Продолжительность : 1 ч. 13 м.
Общий поток : 2328 Кбит/сек
Программа кодирования : Lavf57.71.100
Библиотека кодирования : Lavf57.71.100
ErrorDetectionType : Per level 1

Видео
Идентификатор : 1
Формат : AVC
Формат/Информация : Advanced Video Codec
Профиль формата : Main@L3.1
Настройки формата : CABAC / 3 Ref Frames
Параметр CABAC формата : Да
Параметр RefFrames формата : 3 кадра
Идентификатор кодека : V_MPEG4/ISO/AVC
Продолжительность : 1 ч. 13 м.
Битрейт : 2090 Кбит/сек
Ширина : 1280 пикселей
Высота : 720 пикселей
Соотношение сторон : 16:9
Режим частоты кадров : Постоянный
Частота кадров : 25,000 кадров/сек
Цветовое пространство : YUV
Субдискретизация насыщенности : 4:2:0
Битовая глубина : 8 бит
Тип развёртки : Прогрессивная
Бит/(Пиксели*Кадры) : 0.091
Размер потока : 1,07 Гбайт (90%)
Default : Да
Forced : Нет
Цветовой диапазон : Limited
Основные цвета : BT.709
Характеристики трансфера : BT.709
Коэффициенты матрицы : BT.709

Аудио
Идентификатор : 2
Формат : AC-3
Формат/Информация : Audio Coding 3
Коммерческое название : Dolby Digital
Идентификатор кодека : A_AC3
Продолжительность : 1 ч. 13 м.
Вид битрейта : Постоянный
Битрейт : 192 Кбит/сек
Каналы : 2 канала
Channel layout : L R
Частота : 48,0 КГц
Частота кадров : 31,250 кадров/сек (1536 SPF)
Битовая глубина : 16 бит
Метод сжатия : С потерями
Задержка видео : -40 мс.
Размер потока : 100 Мбайт (8%)
ServiceKind/String : Complete Main
Default : Да
Forced : Нет

piratbit.org



Скачать Уральские Пельмени - Шубный приговор через торрент https://c.radikal.ru/c42/1904/6b/c43f9ccebf92.jpg Скачать фильм Уральские Пельмени - Шубный приговор [эфир от 12.04] [2019, ТВ-шоу, юмор,, WEBRip 720p]через торрент бесплантно в хорошем качестве Описание: Они знают все скамейки возле бутиков! Больше всего они радуются, когда жене есть чего надеть. Смс по их банковским картам для них ... 10 10 4
Торрент: Зарегистрирован [2019-04-13 17:08] · скачан: 148 раз
Статус: √ проверено
Размер: 1.19 GB
Как cкачать? Как скачать Уральские Пельмени - Шубный приговор через торрент | qTorrent


>> Регистрируемся здесь <<






Отзывы и комментарии о схеме читаем и пишем здесь: ---> Отзывы и комментарии о схеме

Новые благодарочки в телеграм довольных пользователей:
скриншот   скриншот   скриншот   скриншот   скриншот
    Дорогой пользователь! Огромная просьба, поблагодарите релизера, оцените раздачу и оставьте свои комментарий, если Вы скачали Уральские Пельмени - Шубный приговор через торрент бесплатно! Внесите свою лепту в развитие PiratBit!
    Комментировать посты могут только пользователи прошедшие не сложную регистрацию
    Показать сообщения:    

    Уральские Пельмени - Шубный приговор через торрент
    Скачать бесплатно Уральские Пельмени - Шубный приговор
    Уральские Пельмени - Шубный приговор скачать торрент
    Уральские Пельмени - Шубный приговор смотреть онлайн
    Cкачать фильм Уральские Пельмени - Шубный приговор бесплатно
    Уральские Пельмени - Шубный приговор скачать торрент в хорошем качестве
    Уральские Пельмени - Шубный приговор смотреть онлайн бесплатно в хорошем качестве


    Вы не можете начинать темы
    Вы не можете отвечать на сообщения
    Вы не можете редактировать свои сообщения
    Вы не можете удалять свои сообщения
    Вы не можете голосовать в опросах
    Вы не можете прикреплять файлы к сообщениям
    Вы можете скачивать файлы