Мега распродажа FORZA HORIZON 4 ULTIMATE+ВСЕ DLC+ОНЛАЙН всего за 499р. 349 руб. (супер цена). Внимание количество ограничено!!!

Лицензия

30

iTunes

мы

iTunes

1

1 сезон

Чернобыль

1 сезон

Ральф против интернета

MVO

Покемон. Детектив Пикачу

8 сезон

Игра престолов

iTunes

1+1

ИГРА 18+

pack

ВАЖНО

!!Акция!!

Alien_RageХит недели

RePack

Resident Evil 21
pack

RePack

Metro:Exodus

!!Акция!!

Alien_Rage

RePack

fifa19

RePack

Assassins Creed: Odyssey

RePack

NEED FOR SPEED™ PAYBACK

3 сезон

9 сезон

Бесстыжие 9 сезон

Все сериалы

все сериалы на PB.wtf

RePack

FAR CRY 5
Ребята, катастрофически не хватает 2730р. для оплаты серверов за МАЙ (всвязи с блокировками трафик упал в 3 раза), 1-2р., выручайте.
  

Шедевр / Mi obra maestra (Гастон Дюпра) [2018, комедия, BDRip 720p] MVO [iTunes] piratbit.org

Шедевр через торрент piratbit.org

Размер: 4.74 GB | Добавлен: 2 мес. 13 д. назад | Торрент скачан:86 раз
Скачать  

13-04-2019 17:17 Шедевр Скачать торрент  

Шедевр / Mi obra maestra Год выпуска: 2018
Страна: Аргентина, Испания
Жанр: комедия
Продолжительность: 01:44:45
Перевод: Профессиональный (многоголосый, закадровый) | iTunes
Субтитры: отсутствуют

Режиссер: Гастон Дюпра

rating

В ролях:

Андреа Акатто, Лукас Аранда, Рауль Аревало, Махмуд Азим, Луис Брандони, Даниэла Кац, София Кондисциани, Эмилия Дупрат, Октавио Дупрат, Моника Дюпра

Описание:

Артуро - утонченный владелец художественной галереи в Буэнос-Айресе и беспринципный арт-дилер. Ренцо - угрюмый и циничный живописец, одинаково ненавидящий арт-критиков, тусовки, журналистов и клиентов, которые хотят получить шедевр на заказ. Несмотря на разность, эти двое были лучшими друзьями и партнёрами на протяжении многих лет, пока Артуро не придумал гениальную аферу.

Качество: BDRip 720p
Формат: AVI

Видео: MPEG-4 AVC, 1280x534, 5467 Mbit/s, 24 fps
Аудио#1: 48 kHz, AC3, 5.1, 384 Kbps | iTunes | RUS |
Аудио#2: 48 kHz, AC3, 5.1, 640 Kbps | Оригинал | SPA |
скриншот  скриншот  скриншот  скриншот  скриншот  

General
Unique ID : 209238927234743931401717703816536040695 (0x9D69F398BBE5DEC97319F1C77916A4F7)
Complete name : D:Video111Mi.Obra.Maestra.2018.BDRip.720p.seleZen.mkv
Format : Matroska
Format version : Version 4
File size : 4.74 GiB
Duration : 1 h 44 min
Overall bit rate : 6 479 kb/s
Movie name : Mi Obra Maestra 2018 from селезень
Encoded date : UTC 2019-04-13 13:13:22
Writing application : mkvmerge v32.0.0 ('Astral Progressions') 64-bit
Writing library : libebml v1.3.7 + libmatroska v1.5.0

Video
ID : 1
Format : AVC
Format/Info : Advanced Video Codec
Format profile : High@L4.1
Format settings : CABAC / 12 Ref Frames
Format settings, CABAC : Yes
Format settings, ReFrames : 12 frames
Codec ID : V_MPEG4/ISO/AVC
Duration : 1 h 44 min
Bit rate : 5 467 kb/s
Width : 1 280 pixels
Height : 534 pixels
Display aspect ratio : 2.40:1
Frame rate mode : Constant
Frame rate : 24.000 FPS
Color space : YUV
Chroma subsampling : 4:2:0
Bit depth : 8 bits
Scan type : Progressive
Bits/(Pixel*Frame) : 0.333
Stream size : 3.99 GiB (84%)
Title : seleZen
Writing library : x264 core 148 r2705kMod 3f5ed56
Encoding settings : cabac=1 / ref=12 / deblock=1:-2:-2 / analyse=0x3:0x133 / me=umh / subme=10 / psy=1 / fade_compensate=0.00 / psy_rd=1.20:0.05 / mixed_ref=1 / me_range=32 / chroma_me=1 / trellis=2 / 8x8dct=1 / cqm=0 / deadzone=21,11 / fast_pskip=0 / chroma_qp_offset=-3 / threads=12 / lookahead_threads=2 / sliced_threads=0 / nr=0 / decimate=0 / interlaced=0 / bluray_compat=0 / constrained_intra=0 / fgo=0 / bframes=8 / b_pyramid=2 / b_adapt=2 / b_bias=0 / direct=3 / weightb=1 / open_gop=0 / weightp=2 / keyint=240 / keyint_min=24 / scenecut=40 / intra_refresh=0 / rc_lookahead=50 / rc=2pass / mbtree=0 / bitrate=5467 / ratetol=1.0 / qcomp=0.60 / qpmin=0 / qpmax=51 / qpstep=4 / cplxblur=20.0 / qblur=0.5 / vbv_maxrate=50000 / vbv_bufsize=62500 / nal_hrd=none / filler=0 / ip_ratio=1.40 / pb_ratio=1.30 / aq=3:0.80
Language : English
Default : Yes
Forced : No

Audio #1
ID : 2
Format : AC-3
Format/Info : Audio Coding 3
Commercial name : Dolby Digital
Codec ID : A_AC3
Duration : 1 h 44 min
Bit rate mode : Constant
Bit rate : 384 kb/s
Channel(s) : 6 channels
Channel layout : L R C LFE Ls Rs
Sampling rate : 48.0 kHz
Frame rate : 31.250 FPS (1536 SPF)
Bit depth : 16 bits
Compression mode : Lossy
Stream size : 287 MiB (6%)
Title : iTunes
Language : Russian
Service kind : Complete Main
Default : Yes
Forced : Yes

Audio #2
ID : 3
Format : AC-3
Format/Info : Audio Coding 3
Commercial name : Dolby Digital
Codec ID : A_AC3
Duration : 1 h 44 min
Bit rate mode : Constant
Bit rate : 640 kb/s
Channel(s) : 6 channels
Channel layout : L R C LFE Ls Rs
Sampling rate : 48.0 kHz
Frame rate : 31.250 FPS (1536 SPF)
Bit depth : 16 bits
Compression mode : Lossy
Stream size : 479 MiB (10%)
Title : Original
Language : Spanish
Service kind : Complete Main
Default : No
Forced : No

Menu
00:00:00.000 : :Chapter 01
00:07:59.958 : :Chapter 02
00:16:10.167 : :Chapter 03
00:24:22.750 : :Chapter 04
00:30:54.833 : :Chapter 05
00:39:39.792 : :Chapter 06
00:48:34.083 : :Chapter 07
01:00:43.125 : :Chapter 08
01:09:41.750 : :Chapter 09
01:14:34.708 : :Chapter 10
01:21:08.375 : :Chapter 11
01:32:39.083 : :Chapter 12

piratbit.org



Скачать Шедевр через торрент https://d.radikal.ru/d20/1904/8f/a3727b3b6721.jpg Скачать фильм Шедевр через торрент бесплантно в хорошем качестве Описание: Артуро - утонченный владелец художественной галереи в Буэнос-Айресе и беспринципный арт-дилер. Ренцо - угрюмый и циничный ... 10 10 6
Торрент: Зарегистрирован [2019-04-13 17:17] · скачан: 86 раз
Статус: √ проверено
Размер: 4.74 GB
Как cкачать? Как скачать Шедевр через торрент | qTorrent

% Раздел Тема Автор DL S | L
Фильмы (Blu-ray, BD-Remux, HDDVD) [ 26.36 GB ] Шедевр / Mi obra maestra [2018 BD Remux 1080p] MVO bober100 Скачать
1 | 0
Фильмы [HD 720p, 1080p] (Хороший звук DUB, MVO) [ 8.44 GB ] Шедевр / Mi obra maestra [2018 BDRip 1080p] MVO bober100 Скачать
2 | 0
Фильмы 2018 [DVDrip, WEB-DLRip, HDrip] (DUB, MVO) [ 1.41 GB ] Шедевр / Mi obra maestra [2018 BDRip] MVO bober100 Скачать
6 | 0


>> Регистрируемся здесь <<






Отзывы и комментарии о схеме читаем и пишем здесь: ---> Отзывы и комментарии о схеме

Новые благодарочки в телеграм довольных пользователей:
скриншот   скриншот   скриншот   скриншот   скриншот
    Дорогой пользователь! Огромная просьба, поблагодарите релизера, оцените раздачу и оставьте свои комментарий, если Вы скачали Шедевр через торрент бесплатно! Внесите свою лепту в развитие PiratBit!
    Комментировать посты могут только пользователи прошедшие не сложную регистрацию
    Показать сообщения:    

    Шедевр через торрент
    Скачать бесплатно Шедевр
    Шедевр скачать торрент
    Шедевр смотреть онлайн
    Cкачать фильм Шедевр бесплатно
    Шедевр скачать торрент в хорошем качестве
    Шедевр смотреть онлайн бесплатно в хорошем качестве


    Вы не можете начинать темы
    Вы не можете отвечать на сообщения
    Вы не можете редактировать свои сообщения
    Вы не можете удалять свои сообщения
    Вы не можете голосовать в опросах
    Вы не можете прикреплять файлы к сообщениям
    Вы можете скачивать файлы