ВНИМАНИЕ!!! Роскомнадзор заблокировал piratbit.org в РФ навсегда, просьба установить наш плагин который откроет доступ из РФ, для Хром, Ябраузер, Опера -> Mozilla FireFox и перейти на pb.wtf. о плагине

Лицензия

30

MVO

Как приручить дракона 3

11 сезон

1

1 сезон

гринч

iTunes

Стекло

iTunes

Клаустрофобы

8 сезон

Игра престолов

iTunes

Ральф против интернета Хит недели

ИГРА 18+

pack

ВАЖНО

!!Акция!!

Alien_RageХит недели

RePack

Resident Evil 21
pack

RePack

Metro:Exodus

!!Акция!!

Alien_Rage

RePack

fifa19

RePack

Assassins Creed: Odyssey

RePack

NEED FOR SPEED™ PAYBACK

3 сезон

9 сезон

Бесстыжие 9 сезон

Все сериалы

все сериалы на PB.wtf

RePack

FAR CRY 5
Ребята, критически не успеваем дособрать 3200р. для оплаты серверов за Март (всвязи с блокировками трафик упал в 3 раза), 1-2р., выручайте.
  

Репродукция / Replicas (Джеффри Начманофф) [2018, фантастика, триллер, BDRip 1080p] DUB [iTunes] +MVO [HDRezka Studio] piratbit.org

Репродукция через торрент piratbit.org

Раздают: 9 [ 1 MB/s ] Качают: 1 [ 0 KB/s ]
Размер: 11 GB | Добавлен: 7 д. назад | Торрент скачан:72 раза
Скачать  

13-04-2019 18:19 Репродукция Скачать торрент  

Репродукция / Replicas Год выпуска: 2018
Страна: США
Жанр: фантастика, триллер
Продолжительность: 01:47:16
Перевод:

Дублированный | iTunes
Профессиональный многоголосый | HDRezka Studio

Субтитры: Английские

Режиссер: Джеффри Начманофф

rating

В ролях:

Киану Ривз (Will Foster), Элис Ив (Mona), Эмили Элин Линд (Sophie), Эмджей Энтони (Matt Foster), Джон Ортис (Jones), Томас Миддлдитч (Ed), Эмбер Таунсенд (Lab Tech), Няша Хатенди (Scott), Ария Лайрик Либу (Zoe Foster), Эмбер Ривера (Margaret), Саншайн Логроньо (Hector), Эвелин Дин-Олмстед (Lab Tech)
Описание:

Талантливый ученый-биолог теряет в автокатастрофе свою семью. Одержимый желанием вернуть к жизни жену и детей, он преступает законы научной этики и самой природы. Но когда информация о репродукции человека доходит до властей, на ученого и воскрешенных им близких начинается охота.

Качество: BDRip 1080p
Формат: MKV

Видео: MPEG-4 AVC, 13.5 Мбит/с, 1920x804
Аудио#1: Русский (AC3, 6 ch, 384 Кбит/с)
Аудио#2: Русский (AC3, 2 ch, 192 Кбит/с)
Аудио#3: английский (AC3, 6 ch, 640 Кбит/с)
скриншот  скриншот  скриншот  

General
Unique ID : 281271027712552575320491236121690344828 (0xD39AD4588A50DC9EF2878249D4918D7C)
Complete name : D:\Video111\Replicas.2018.BDRip.1080p.seleZen.mkv
Format : Matroska
Format version : Version 4
File size : 11.0 GiB
Duration : 1 h 47 min
Overall bit rate : 14.7 Mb/s
Movie name : Replicas 2018 from селезень
Encoded date : UTC 2019-03-25 15:23:28
Writing application : mkvmerge v32.0.0 ('Astral Progressions') 64-bit
Writing library : libebml v1.3.7 + libmatroska v1.5.0

Video
ID : 1
Format : AVC
Format/Info : Advanced Video Codec
Format profile : High@L4.1
Format settings : CABAC / 5 Ref Frames
Format settings, CABAC : Yes
Format settings, ReFrames : 5 frames
Codec ID : V_MPEG4/ISO/AVC
Duration : 1 h 47 min
Bit rate : 13.5 Mb/s
Width : 1 920 pixels
Height : 804 pixels
Display aspect ratio : 2.40:1
Frame rate mode : Constant
Frame rate : 23.976 (24000/1001) FPS
Color space : YUV
Chroma subsampling : 4:2:0
Bit depth : 8 bits
Scan type : Progressive
Bits/(Pixel*Frame) : 0.365
Stream size : 10.1 GiB (92%)
Title : iFT
Writing library : x264 core 155 r2867+74 66b5600 t_mod_Custom_2 [8-bit@all X86_64]
Encoding settings : cabac=1 / ref=5 / deblock=1:-3:-3 / analyse=0x3:0x133 / me=umh / subme=11 / psy=1 / fade_compensate=0.00 / psy_rd=1.00:0.00 / mixed_ref=1 / me_range=32 / chroma_me=1 / trellis=2 / 8x8dct=1 / cqm=0 / deadzone=21,11 / fast_pskip=0 / chroma_qp_offset=-2 / threads=18 / lookahead_threads=3 / sliced_threads=0 / nr=0 / decimate=0 / interlaced=0 / bluray_compat=0 / constrained_intra=0 / fgo=0 / bframes=8 / b_pyramid=2 / b_adapt=2 / b_bias=0 / direct=3 / weightb=1 / open_gop=0 / weightp=2 / keyint=250 / keyint_min=23 / scenecut=40 / intra_refresh=0 / rc=2pass / mbtree=0 / bitrate=13500 / ratetol=1.0 / qcomp=0.60 / qpmin=0:0:0 / qpmax=69:69:69 / qpstep=4 / cplxblur=20.0 / qblur=0.5 / ip_ratio=1.30 / pb_ratio=1.20 / aq=3:0.70 / aq-sensitivity=10.00 / aq-factor=1.00:1.00:1.00 / aq2=0 / aq3=0
Language : English
Default : Yes
Forced : No
Color range : Limited
Matrix coefficients : BT.709

Audio #1
ID : 2
Format : AC-3
Format/Info : Audio Coding 3
Commercial name : Dolby Digital
Codec ID : A_AC3
Duration : 1 h 47 min
Bit rate mode : Constant
Bit rate : 384 kb/s
Channel(s) : 6 channels
Channel layout : L R C LFE Ls Rs
Sampling rate : 48.0 kHz
Frame rate : 31.250 FPS (1536 SPF)
Bit depth : 16 bits
Compression mode : Lossy
Stream size : 295 MiB (3%)
Title : iTunes
Language : Russian
Service kind : Complete Main
Default : Yes
Forced : Yes

Audio #2
ID : 3
Format : AC-3
Format/Info : Audio Coding 3
Commercial name : Dolby Digital
Codec ID : A_AC3
Duration : 1 h 47 min
Bit rate mode : Constant
Bit rate : 192 kb/s
Channel(s) : 2 channels
Channel layout : L R
Sampling rate : 48.0 kHz
Frame rate : 31.250 FPS (1536 SPF)
Bit depth : 16 bits
Compression mode : Lossy
Stream size : 147 MiB (1%)
Title : MVO [HDRezka Studio]
Language : Russian
Service kind : Complete Main
Default : No
Forced : No

Audio #3
ID : 4
Format : AC-3
Format/Info : Audio Coding 3
Commercial name : Dolby Digital
Codec ID : A_AC3
Duration : 1 h 47 min
Bit rate mode : Constant
Bit rate : 640 kb/s
Channel(s) : 6 channels
Channel layout : L R C LFE Ls Rs
Sampling rate : 48.0 kHz
Frame rate : 31.250 FPS (1536 SPF)
Bit depth : 16 bits
Compression mode : Lossy
Stream size : 491 MiB (4%)
Title : Original
Language : English
Service kind : Complete Main
Default : No
Forced : No

Text
ID : 5
Format : UTF-8
Codec ID : S_TEXT/UTF8
Codec ID/Info : UTF-8 Plain Text
Duration : 1 h 36 min
Bit rate : 43 b/s
Count of elements : 1069
Stream size : 31.0 KiB (0%)
Title : SDH
Language : English
Default : No
Forced : No

Menu
00:00:00.000 : :Capítulo 01
00:08:29.134 : :Capítulo 02
00:17:23.834 : :Capítulo 03
00:26:59.576 : :Capítulo 04
00:33:15.076 : :Capítulo 05
00:44:10.982 : :Capítulo 06
00:52:08.667 : :Capítulo 07
01:01:46.995 : :Capítulo 08
01:09:54.440 : :Capítulo 09
01:17:47.955 : :Capítulo 10
01:26:29.518 : :Capítulo 11
01:36:33.496 : :Capítulo 12

piratbit.org



Скачать Репродукция через торрент http://pic1.kartinco.top/images/12/eufbt.jpg Скачать фильм Репродукция через торрент бесплантно в хорошем качестве Описание: Талантливый ученый-биолог теряет в автокатастрофе свою семью. Одержимый желанием вернуть к жизни жену и детей, он преступает ... 10 10 6
Торрент: Зарегистрирован [2019-04-13 18:19] · скачан: 72 раз
Статус: √ проверено
Размер: 11 GB
Как cкачать? Как скачать Репродукция через торрент | qTorrent

% Раздел Тема Автор DL S | L
Фильмы (Blu-ray, BD-Remux, HDDVD) [ 27.88 GB ] Репродукция / Replicas [2018 BD Remux ] Бумер Скачать
6 | 0
Фильмы 2018 [DVDrip, WEB-DLRip, HDrip] (DUB, MVO) [ 1.41 GB ] Репродукция / Replicas [2018 BDRip] bober100 Скачать
42 | 1
Ultra HD (UHD: 2K, 4K, 8K) — видео сверхвысокой чёткости [ 14.09 GB ] Репродукция / Replicas [2018 UHD WEBRip 2160p] + MVO [HDRezka Studio] sheker187 Скачать
7 | 1
Фильмы (HD 720p, 1080p) (48-60 fps) [ 8.91 GB ] Репродукция / Replicas [2018 BDRip 720p 60 fps] - sheker187 Скачать
18 | 0
Фильмы [HD 720p, 1080p] (Хороший звук DUB, MVO) [ 10.86 GB ] Репродукция / Replicas [2018 BDRip 1080p] - sheker187 Скачать
31 | 0


>> Регистрируемся здесь <<






Отзывы и комментарии о схеме читаем и пишем здесь: ---> Отзывы и комментарии о схеме

Новые благодарочки в телеграм довольных пользователей:
скриншот   скриншот   скриншот   скриншот   скриншот
    Дорогой пользователь! Огромная просьба, поблагодарите релизера, оцените раздачу и оставьте свои комментарий, если Вы скачали Репродукция через торрент бесплатно! Внесите свою лепту в развитие PiratBit!
    Комментировать посты могут только пользователи прошедшие не сложную регистрацию
    Показать сообщения:    

    Репродукция через торрент
    Скачать бесплатно Репродукция
    Репродукция скачать торрент
    Репродукция смотреть онлайн
    Cкачать фильм Репродукция бесплатно
    Репродукция скачать торрент в хорошем качестве
    Репродукция смотреть онлайн бесплатно в хорошем качестве


    Вы не можете начинать темы
    Вы не можете отвечать на сообщения
    Вы не можете редактировать свои сообщения
    Вы не можете удалять свои сообщения
    Вы не можете голосовать в опросах
    Вы не можете прикреплять файлы к сообщениям
    Вы можете скачивать файлы