ВНИМАНИЕ!!! Роскомнадзор заблокировал piratbit.org в РФ навсегда, просьба установить наш плагин который откроет доступ из РФ, для Хром, Ябраузер, Опера -> Mozilla FireFox и перейти на pb.wtf. о плагине

Лицензия

30

MVO

Как приручить дракона 3

11 сезон

1

1 сезон

гринч

iTunes

Стекло

iTunes

Клаустрофобы

8 сезон

Игра престолов

iTunes

Ральф против интернета Хит недели

ИГРА 18+

pack

ВАЖНО

!!Акция!!

Alien_RageХит недели

RePack

Resident Evil 21
pack

RePack

Metro:Exodus

!!Акция!!

Alien_Rage

RePack

fifa19

RePack

Assassins Creed: Odyssey

RePack

NEED FOR SPEED™ PAYBACK

3 сезон

9 сезон

Бесстыжие 9 сезон

Все сериалы

все сериалы на PB.wtf

RePack

FAR CRY 5
Ребята, критически не успеваем дособрать 3200р. для оплаты серверов за Март (всвязи с блокировками трафик упал в 3 раза), 1-2р., выручайте.
  

Воин / Warfighter (Джерри Дж. Анджело) [2018, боевик, драма, мелодрама, военный, WEB-DL 720p] MVO ["Синема УС"] piratbit.org

Воин через торрент piratbit.org

Раздают: 12 [ 497 KB/s ]
Размер: 4.29 GB | Добавлен: 7 д. назад | Торрент скачан:85 раз
Скачать  

13-04-2019 18:44 Воин Скачать торрент  

Воин / Warfighter Год выпуска: 2018
Страна: США
Жанр: боевик, драма, мелодрама, военный
Продолжительность: 01:46:01
Перевод: Любительский (многоголосый) | "Синема УС"
Субтитры: отсутствуют

Режиссер: Джерри Дж. Анджело

rating

В ролях:

Джерри Дж. Анджело, Пол Логан, Айзек С. Синглтон мл., Виктория Клер, Джошуа Сантана, Каролина Фиппс, Ryan Baumann, Майкл Кинг, Дженнифер Маршалл, Дэвид Роббинс

Описание:

Спецназовец Расти пытается привести в равновесие работу и семейную жизнь. Каждый день он старается удержаться на грани между реальностью и кошмарами, которые мучают его. Отправляясь на очередное задание, он готов пожертвовать собой ради своих сослуживцев и друзей.

Качество: WEB-DL 720p
Формат: MKV

Видео: 5295 Кбит/с, 1280x536
Аудио: Русский, (AC3, 2 ch, 384 Кбит/с)
скриншот  скриншот  скриншот  

Общее
Уникальный идентификатор : 202423705495183943817994536298450101442 (0x98496338E1C7EDCBA8041299B5DDA4C2)
Полное имя : D:\Warfighter.2018.P.WEB-DL.72Op.mkv
Формат : Matroska
Версия формата : Version 2
Размер файла : 4,29 Гбайт
Продолжительность : 1 ч. 46 м.
Режим общего битрейта : Переменный
Общий поток : 5794 Кбит/сек
Дата кодирования : UTC 2019-04-13 15:34:42
Программа кодирования : mkvmerge v8.3.0 ('Over the Horizon') 64bit
Библиотека кодирования : libebml v1.3.1 + libmatroska v1.4.2

Видео
Идентификатор : 1
Формат : AVC
Формат/Информация : Advanced Video Codec
Профиль формата : High@L4.1
Параметр CABAC формата : Да
Параметр RefFrames формата : 4 кадра
Идентификатор кодека : V_MPEG4/ISO/AVC
Продолжительность : 1 ч. 46 м.
Вид битрейта : Переменный
Битрейт : 5295 Кбит/сек
Максимальный битрейт : 6000 Кбит/сек
Ширина : 1280 пикселей
Высота : 536 пикселей
Соотношение сторон : 2,40:1
Режим частоты кадров : Постоянный
Частота кадров : 23,976 (24000/1001) кадра/сек
Стандарт вещания : Component
Цветовое пространство : YUV
Субдискретизация насыщенности : 4:2:0
Битовая глубина : 8 бит
Тип развёртки : Прогрессивная
Бит/(Пиксели*Кадры) : 0.322
Размер потока : 3,92 Гбайт (91%)
Default : Да
Forced : Нет
Цветовой диапазон : Limited
Основные цвета : BT.709
Характеристики трансфера : BT.709
Коэффициенты матрицы : BT.709

Аудио
Идентификатор : 2
Формат : AC-3
Формат/Информация : Audio Coding 3
Расширение режима : CM (complete main)
Параметр Endianness формата : Big
Идентификатор кодека : A_AC3
Продолжительность : 1 ч. 46 м.
Вид битрейта : Постоянный
Битрейт : 384 Кбит/сек
Каналы : 2 канала
Расположение каналов : Front: L R
Частота : 48,0 КГц
Частота кадров : 31,250 кадров/сек (1536 spf)
Метод сжатия : С потерями
Размер потока : 291 Мбайт (7%)
Default : Да
Forced : Нет

piratbit.org



Скачать Воин через торрент https://d.radikal.ru/d39/1904/5b/c8a80b334bd6.jpg Скачать фильм Воин через торрент бесплантно в хорошем качестве Описание: Спецназовец Расти пытается привести в равновесие работу и семейную жизнь. Каждый день он старается удержаться на грани между ... 6.3 10 12
Торрент: Зарегистрирован [2019-04-13 18:44] · скачан: 85 раз
Статус: T временная
Размер: 4.29 GB
Как cкачать? Как скачать Воин через торрент | qTorrent

% Раздел Тема Автор DL S | L
T Фильмы (мультфильмы) cо спонсором показа (Новинки AVI/MKV) [ 1.46 GB ] Воин / Warfighter [2018 военный WEB-DLRip] MVO ["Синема УС"] bober100 Скачать
28 | 3


>> Регистрируемся здесь <<






Отзывы и комментарии о схеме читаем и пишем здесь: ---> Отзывы и комментарии о схеме

Новые благодарочки в телеграм довольных пользователей:
скриншот   скриншот   скриншот   скриншот   скриншот
    Дорогой пользователь! Огромная просьба, поблагодарите релизера, оцените раздачу и оставьте свои комментарий, если Вы скачали Воин через торрент бесплатно! Внесите свою лепту в развитие PiratBit!
    Комментировать посты могут только пользователи прошедшие не сложную регистрацию
    Показать сообщения:    

    Воин через торрент
    Скачать бесплатно Воин
    Воин скачать торрент
    Воин смотреть онлайн
    Cкачать фильм Воин бесплатно
    Воин скачать торрент в хорошем качестве
    Воин смотреть онлайн бесплатно в хорошем качестве


    Вы не можете начинать темы
    Вы не можете отвечать на сообщения
    Вы не можете редактировать свои сообщения
    Вы не можете удалять свои сообщения
    Вы не можете голосовать в опросах
    Вы не можете прикреплять файлы к сообщениям
    Вы можете скачивать файлы