Наша группа ВК в очередной раз забанена мы уходим в Телеграм, присоединяйтесь!!!

Лицензия

30

iTunes

Как приручить дракона 3

iTunes

1

1 сезон

Чернобыль

iTunes

Снегоуборщик

iTunes

Закатать в асфальт

8 сезон

Игра престолов

iTunes

Ральф против интернета Хит недели

ИГРА 18+

pack

ВАЖНО

!!Акция!!

Alien_RageХит недели

RePack

Resident Evil 21
pack

RePack

Metro:Exodus

!!Акция!!

Alien_Rage

RePack

fifa19

RePack

Assassins Creed: Odyssey

RePack

NEED FOR SPEED™ PAYBACK

3 сезон

9 сезон

Бесстыжие 9 сезон

Все сериалы

все сериалы на PB.wtf

RePack

FAR CRY 5
Ребята, катастрофически не хватает 2730р. для оплаты серверов за АПРЕЛЬ (всвязи с блокировками трафик упал в 3 раза), 1-2р., выручайте.
  

Десятый номер / X. / X - The eXploited (Карой Уй Месарош) [2018, триллер, криминал, WEB-DL 720p] MVO ["Синема УС"] piratbit.org

Десятый номер через торрент piratbit.org

Размер: 4.67 GB | Добавлен: 1 мес. 8 д. назад | Торрент скачан:44 раза
Скачать  

14-04-2019 06:32 Десятый номер Скачать торрент  

Десятый номер / X. / X - The eXploited Год выпуска: 2018
Страна: Венгрия
Жанр: триллер, криминал
Продолжительность: 01:55:31
Перевод: Любительский (многоголосый) | "Синема УС"
Субтитры: отсутствуют

Режиссер: Карой Уй Месарош

rating

В ролях:

Зофи Буяки, Моника Бальшаи, Ренато Олас, Юли Башти, Эрнё Фекете, Золтан Шнайдер, Андраш Месарош, Сабольч Беде Фазекаш, Зольтан Шмид, Балаж Верес

Описание:

Вы бы поверили полицейскому, женщине, постоянно страдающей от панических атак на месте преступления, несмотря на солидный опыт работы? Поверили бы матери-одиночке, которая с трудом выплачивает ипотеку и растит дочь-подростка? Действительно, никто не думает, что она может раскрыть дело о серийном убийце. Личная драма и загадочные преступления сплетаются на фоне современного Будапешта, охваченного протестным движением накануне выборов. Город все еще пытается осознать свое темное историческое наследие. В нем кажется, что верить нельзя никому. Разве что этой женщине из полиции с честными глазами.

Качество: WEB-DL 720p
Формат: MKV

Видео: 5 399 Кбит/с, 1280x536
Аудио#1: Русский, (AC3, 2 ch, 384 Кбит/с)
скриншот  скриншот  скриншот  

Общее
Уникальный идентификатор : 181834216986230462757090000959100685720 (0x88CBFF1030CA4394BE986E5932180D98)
Полное имя : D:\X.2018.P.WEB-DL.72Op.mkv
Формат : Matroska
Версия формата : Version 2
Размер файла : 4,67 Гбайт
Продолжительность : 1 ч. 55 м.
Режим общего битрейта : Переменный
Общий поток : 5785 Кбит/сек
Дата кодирования : UTC 2019-04-13 16:08:05
Программа кодирования : mkvmerge v8.3.0 ('Over the Horizon') 64bit
Библиотека кодирования : libebml v1.3.1 + libmatroska v1.4.2

Видео
Идентификатор : 1
Формат : AVC
Формат/Информация : Advanced Video Codec
Профиль формата : High@L4.1
Параметр CABAC формата : Да
Параметр RefFrames формата : 4 кадра
Идентификатор кодека : V_MPEG4/ISO/AVC
Продолжительность : 1 ч. 55 м.
Вид битрейта : Переменный
Битрейт : 5399 Кбит/сек
Максимальный битрейт : 6000 Кбит/сек
Ширина : 1280 пикселей
Высота : 536 пикселей
Соотношение сторон : 2,40:1
Режим частоты кадров : Постоянный
Частота кадров : 23,976 (24000/1001) кадра/сек
Стандарт вещания : Component
Цветовое пространство : YUV
Субдискретизация насыщенности : 4:2:0
Битовая глубина : 8 бит
Тип развёртки : Прогрессивная
Бит/(Пиксели*Кадры) : 0.321
Размер потока : 4,27 Гбайт (91%)
Default : Да
Forced : Нет
Цветовой диапазон : Limited
Основные цвета : BT.709
Характеристики трансфера : BT.709
Коэффициенты матрицы : BT.709

Аудио
Идентификатор : 2
Формат : AC-3
Формат/Информация : Audio Coding 3
Расширение режима : CM (complete main)
Параметр Endianness формата : Big
Идентификатор кодека : A_AC3
Продолжительность : 1 ч. 55 м.
Вид битрейта : Постоянный
Битрейт : 384 Кбит/сек
Каналы : 2 канала
Расположение каналов : Front: L R
Частота : 48,0 КГц
Частота кадров : 31,250 кадров/сек (1536 spf)
Метод сжатия : С потерями
Размер потока : 317 Мбайт (7%)
Default : Да
Forced : Нет

piratbit.org



Скачать Десятый номер через торрент https://c.radikal.ru/c23/1904/da/b1255167e134.jpg Скачать фильм Десятый номер через торрент бесплантно в хорошем качестве Описание: Вы бы поверили полицейскому, женщине, постоянно страдающей от панических атак на месте преступления, несмотря на солидный опыт ... 10 10 3
Торрент: Зарегистрирован [2019-04-14 06:32] · скачан: 44 раз
Статус: T временная
Размер: 4.67 GB
Как cкачать? Как скачать Десятый номер через торрент | qTorrent

% Раздел Тема Автор DL S | L
T Фильмы (мультфильмы) cо спонсором показа (Новинки AVI/MKV) [ 1.45 GB ] Десятый номер / X. / X - The eXploited [2018 WEB-DLRip] MVO ["Синема УС"] bober100 Скачать
3 | 0


>> Регистрируемся здесь <<






Отзывы и комментарии о схеме читаем и пишем здесь: ---> Отзывы и комментарии о схеме

Новые благодарочки в телеграм довольных пользователей:
скриншот   скриншот   скриншот   скриншот   скриншот
    Дорогой пользователь! Огромная просьба, поблагодарите релизера, оцените раздачу и оставьте свои комментарий, если Вы скачали Десятый номер через торрент бесплатно! Внесите свою лепту в развитие PiratBit!
    Комментировать посты могут только пользователи прошедшие не сложную регистрацию
    Показать сообщения:    

    Десятый номер через торрент
    Скачать бесплатно Десятый номер
    Десятый номер скачать торрент
    Десятый номер смотреть онлайн
    Cкачать фильм Десятый номер бесплатно
    Десятый номер скачать торрент в хорошем качестве
    Десятый номер смотреть онлайн бесплатно в хорошем качестве


    Вы не можете начинать темы
    Вы не можете отвечать на сообщения
    Вы не можете редактировать свои сообщения
    Вы не можете удалять свои сообщения
    Вы не можете голосовать в опросах
    Вы не можете прикреплять файлы к сообщениям
    Вы можете скачивать файлы