Мега распродажа FORZA HORIZON 4 ULTIMATE+ВСЕ DLC+ОНЛАЙН всего за 499р. 349 руб. (супер цена). Внимание количество ограничено!!!

Лицензия

30

iTunes

мы

iTunes

1

1 сезон

Чернобыль

1 сезон

Ральф против интернета

MVO

Покемон. Детектив Пикачу

8 сезон

Игра престолов

iTunes

1+1

ИГРА 18+

pack

ВАЖНО

!!Акция!!

Alien_RageХит недели

RePack

Resident Evil 21
pack

RePack

Metro:Exodus

!!Акция!!

Alien_Rage

RePack

fifa19

RePack

Assassins Creed: Odyssey

RePack

NEED FOR SPEED™ PAYBACK

3 сезон

9 сезон

Бесстыжие 9 сезон

Все сериалы

все сериалы на PB.wtf

RePack

FAR CRY 5
Ребята, катастрофически не хватает 2730р. для оплаты серверов за МАЙ (всвязи с блокировками трафик упал в 3 раза), 1-2р., выручайте.
  

Несокрушимый (Константин Максимов) [2018 г., Военный, История, Драма, BDRip 1080p-HEVC 10bit] piratbit.org

Несокрушимый через торрент piratbit.org

Раздают: 1 [ 0 KB/s ]
Размер: 3.58 GB | Добавлен: 2 мес. 2 д. назад | Торрент скачан:69 раз
Скачать  

14-04-2019 07:40 Несокрушимый Скачать торрент  

Несокрушимый
Год выпуска: 2018
Страна: Россия
Жанр: Военный, История, Драма
Продолжительность: 01:29:36
Субтитры: Русские полные

Режиссер: Константин Максимов



В ролях: Андрей Чернышов, Владимир Епифанцев, Олег Фомин, Сергей Горобченко

Описание: В основе фильма реальная история уникального подвига экипажа танка «КВ-1». Приняв неравный бой, экипаж Семена Коновалова уничтожил 16 танков, 2 бронемашины и 8 автомашин с живой силой противника в районе хутора Нижнемитякин Тарасовского района Ростовской области.
Это история не плакатных героев, а разбитных, веселых, очень разных парней, которые просто хотели жить, но в решающую минуту сумели принять единственно верное решение и совершить подвиг достойный легенды.

Качество: BDRip 1080p
Формат: MKV
Видео кодек: H.265
Аудио кодек: DTS
Видео: HEVC/H.265, 1920x804, ~4196 Kbps
Аудио#1: DTS, 6 ch, 1509 Kbps Русский
Релиз от: ADVOKAT69
скриншот  ,скриншот  ,скриншот  ,скриншот  ,

Общее
Уникальный идентификатор : 249552322208742293096739979605411536022 (0xBBBE076CC2F1FB75A5B8C5600A369C96)
Полное имя : G:\Несокрушимый (2018) HEVC 10bit.mkv
Формат : Matroska
Версия формата : Version 4
Размер файла : 3,58 Гбайт
Продолжительность : 1 ч. 29 м.
Общий поток : 5725 Кбит/сек
Дата кодирования : UTC 2019-04-14 06:12:18
Программа кодирования : mkvmerge v9.2.0 ('Photograph') 64bit
Библиотека кодирования : libebml v1.3.3 + libmatroska v1.4.4
Encoding Gui : Hybrid 2017.05.06.1

Видео
Идентификатор : 1
Формат : HEVC
Формат/Информация : High Efficiency Video Coding
Профиль формата : Main 10@L4@High
Идентификатор кодека : V_MPEGH/ISO/HEVC
Продолжительность : 1 ч. 29 м.
Битрейт : 4196 Кбит/сек
Ширина : 1920 пикселей
Высота : 804 пикселя
Соотношение сторон : 2,40:1
Режим частоты кадров : Постоянный
Частота кадров : 24,000 кадра/сек
Цветовое пространство : YUV
Субдискретизация насыщенности : 4:2:0
Битовая глубина : 10 бит
Бит/(Пиксели*Кадры) : 0.113
Размер потока : 2,63 Гбайт (73%)
Библиотека кодирования : x265 2.5+5-0b3ba15b33ea:[Windows][GCC 7.2.0][64 bit] 10bit
Настройки программы : cpuid=1050111 / frame-threads=2 / numa-pools=4 / wpp / no-pmode / no-pme / no-psnr / no-ssim / log-level=2 / input-csp=1 / input-res=1920x804 / interlace=0 / total-frames=0 / level-idc=40 / high-tier=1 / uhd-bd=0 / ref=3 / no-allow-non-conformance / no-repeat-headers / annexb / no-aud / no-hrd / info / hash=0 / no-temporal-layers / open-gop / min-keyint=24 / keyint=250 / bframes=4 / b-adapt=2 / b-pyramid / bframe-bias=0 / rc-lookahead=20 / lookahead-slices=5 / scenecut=40 / no-intra-refresh / ctu=64 / min-cu-size=8 / no-rect / no-amp / max-tu-size=32 / tu-inter-depth=1 / tu-intra-depth=1 / limit-tu=0 / rdoq-level=0 / dynamic-rd=0.00 / no-ssim-rd / signhide / no-tskip / nr-intra=0 / nr-inter=0 / no-constrained-intra / strong-intra-smoothing / max-merge=2 / limit-refs=3 / no-limit-modes / me=1 / subme=2 / merange=57 / temporal-mvp / weightp / no-weightb / no-analyze-src-pics / deblock=-3:-3 / no-sao / no-sao-non-deblock / rd=3 / no-early-skip / rskip / no-fast-intra / no-tskip-fast / no-cu-lossless / no-b-intra / rdpenalty=0 / psy-rd=2.00 / psy-rdoq=0.00 / no-rd-refine / analysis-reuse-mode=0 / no-lossless / cbqpoffs=0 / crqpoffs=0 / rc=crf / crf=20.0 / qcomp=0.60 / qpstep=4 / stats-write=0 / stats-read=0 / vbv-maxrate=30000 / vbv-bufsize=30000 / vbv-init=0.9 / crf-max=0.0 / crf-min=0.0 / ipratio=1.40 / pbratio=1.30 / aq-mode=1 / aq-strength=1.00 / cutree / zone-count=0 / no-strict-cbr / qg-size=32 / no-rc-grain / qpmax=69 / qpmin=0 / no-const-vbv / sar=0 / overscan=0 / videoformat=5 / range=0 / colorprim=2 / transfer=2 / colormatrix=1 / chromaloc=0 / display-window=0 / max-cll=0,0 / min-luma=0 / max-luma=1023 / log2-max-poc-lsb=8 / vui-timing-info / vui-hrd-info / slices=1 / opt-qp-pps / opt-ref-list-length-pps / no-multi-pass-opt-rps / scenecut-bias=0.05 / no-opt-cu-delta-qp / no-aq-motion / no-hdr / no-hdr-opt / no-dhdr10-opt / analysis-reuse-level=5 / scale-factor=0 / refine-intra=0 / refine-inter=0 / refine-mv=0 / no-limit-sao / ctu-info=0
Default : Да
Forced : Да
Цветовой диапазон : Limited
Коэффициенты матрицы : BT.709

Аудио
Идентификатор : 2
Формат : DTS
Формат/Информация : Digital Theater Systems
Идентификатор кодека : A_DTS
Продолжительность : 1 ч. 29 м.
Вид битрейта : Постоянный
Битрейт : 1509 Кбит/сек
Каналы : 6 каналов
Channel layout : C L R Ls Rs LFE
Частота : 48,0 КГц
Частота кадров : 93,750 кадра/сек (512 SPF)
Битовая глубина : 24 бит
Метод сжатия : С потерями
Размер потока : 967 Мбайт (26%)
Заголовок : DTS, 6 ch, 1509 Kbps Русский
Default : Да
Forced : Нет

Текст
Идентификатор : 3
Формат : PGS
Режим смешивания : zlib
Идентификатор кодека : S_HDMV/PGS
Идентификатор кодека/Информация : Picture based subtitle format used on BDs/HD-DVDs
Продолжительность : 1 ч. 26 м.
Битрейт : 18,8 Кбит/сек
ElementCount : 1788
Размер потока : 11,6 Мбайт (0%)
Заголовок : Русские Full
Default : Да
Forced : Нет

Меню
00:00:00.000 : :Kapitel 01
00:06:55.000 : :Kapitel 02
00:12:34.833 : :Kapitel 03
00:18:15.542 : :Kapitel 04
00:23:11.208 : :Kapitel 05
00:30:32.542 : :Kapitel 06
00:37:27.083 : :Kapitel 07
00:43:47.958 : :Kapitel 08
00:49:43.625 : :Kapitel 09
00:57:52.542 : :Kapitel 10
01:01:58.750 : :Kapitel 11
01:07:38.625 : :Kapitel 12
01:12:59.875 : :Kapitel 13
01:18:22.958 : :Kapitel 14
01:23:34.625 : :Kapitel 15
01:25:35.292 : :Kapitel 16

piratbit.org



Скачать Несокрушимый через торрент https://a.radikal.ru/a03/1904/7d/268c2a5d5500.png Скачать фильм Несокрушимый через торрент бесплантно в хорошем качестве Описание: В основе фильма реальная история уникального подвига экипажа танка «КВ-1». Приняв неравный бой, экипаж Семена Коновалова ... 9.7 10 3
Торрент: Зарегистрирован [2019-04-14 07:40] · скачан: 69 раз
Статус: √ проверено
Размер: 3.58 GB
Как cкачать? Как скачать Несокрушимый через торрент | qTorrent

% Раздел Тема Автор DL S | L
T Фильмы (мультфильмы) cо спонсором показа (Новинки AVI/MKV) [ 3.72 GB ] Норм и Несокрушимые: Большое путешествие / Norm of the North: King Sized Adventure [2019 мультфильм WEB-DL 720p] MVO ["Синема УС"] bober100 Скачать
7 | 1
T Фильмы (мультфильмы) cо спонсором показа (Новинки AVI/MKV) [ 1.37 GB ] Норм и Несокрушимые: Большое путешествие / Norm of the North: King Sized Adventure [2019 мультфильм WEB-DLRip] MVO ["Синема УС"] bober100 Скачать
7 | 1
Наши новые фильмы 2018-2019 [ 1.47 GB ] Несокрушимый [2018 военный история BDRip-AVC] [GER Transfer] [] bober100 Скачать
3 | 0
Наши фильмы (HD, WEB-DL 720p, 1080p) [ 3.02 GB ] Несокрушимый [2018 военный история BDRip 720p] [] - ExKinoRay Enigma2010 Скачать
3 | 0
Наши фильмы (Blu-ray, BD-Remux, HDDVD) [ 27.07 GB ] Несокрушимый [2018 военный история BDRemux 1080p] [] [GER Transfer] sheker187 Скачать
1 | 0
Наши новые фильмы 2018-2019 [ 1.44 GB ] Несокрушимый [2018 военный история BDRip] [] Twi7ter Скачать
7 | 0
Наши фильмы (HD, WEB-DL 720p, 1080p) [ 7.74 GB ] Несокрушимый [2018 военный история BDRip 1080p] [ BD GER] bober100 Скачать
3 | 0


>> Регистрируемся здесь <<






Отзывы и комментарии о схеме читаем и пишем здесь: ---> Отзывы и комментарии о схеме

Новые благодарочки в телеграм довольных пользователей:
скриншот   скриншот   скриншот   скриншот   скриншот

14-04-2019 09:07 Несокрушимый Скачать торрент  

мне Т-34 понравился большеpiratbit.org



    Дорогой пользователь! Огромная просьба, поблагодарите релизера, оцените раздачу и оставьте свои комментарий, если Вы скачали Несокрушимый через торрент бесплатно! Внесите свою лепту в развитие PiratBit!
    Комментировать посты могут только пользователи прошедшие не сложную регистрацию
    Показать сообщения:    

    Несокрушимый через торрент
    Скачать бесплатно Несокрушимый
    Несокрушимый скачать торрент
    Несокрушимый смотреть онлайн
    Cкачать фильм Несокрушимый бесплатно
    Несокрушимый скачать торрент в хорошем качестве
    Несокрушимый смотреть онлайн бесплатно в хорошем качестве


    Вы не можете начинать темы
    Вы не можете отвечать на сообщения
    Вы не можете редактировать свои сообщения
    Вы не можете удалять свои сообщения
    Вы не можете голосовать в опросах
    Вы не можете прикреплять файлы к сообщениям
    Вы можете скачивать файлы