Мега распродажа FORZA HORIZON 4 ULTIMATE+ВСЕ DLC+ОНЛАЙН всего за 499р. 349 руб. (супер цена). Внимание количество ограничено!!!

Лицензия

30

iTunes

мы

iTunes

1

1 сезон

Чернобыль

iTunes

1+1

iTunes

Закатать в асфальт

8 сезон

Игра престолов

1 сезон

Ральф против интернета

ИГРА 18+

pack

ВАЖНО

!!Акция!!

Alien_RageХит недели

RePack

Resident Evil 21
pack

RePack

Metro:Exodus

!!Акция!!

Alien_Rage

RePack

fifa19

RePack

Assassins Creed: Odyssey

RePack

NEED FOR SPEED™ PAYBACK

3 сезон

9 сезон

Бесстыжие 9 сезон

Все сериалы

все сериалы на PB.wtf

RePack

FAR CRY 5
Ребята, катастрофически не хватает 2730р. для оплаты серверов за АПРЕЛЬ (всвязи с блокировками трафик упал в 3 раза), 1-2р., выручайте.
  

Парадокс Кловерфилда / The Cloverfield Paradox (Джулиус Она) [2018, ужасы, фантастика, триллер, BDRip 1080p, 60 fps] 3xMVO piratbit.org

Парадокс Кловерфилда через торрент piratbit.org

Раздают: 6 [ 0 KB/s ]
Размер: 15.3 GB | Добавлен: 1 мес. 12 д. назад | Торрент скачан:153 раза
Скачать  

14-04-2019 11:27 Парадокс Кловерфилда Скачать торрент  

Парадокс Кловерфилда / The Cloverfield Paradox«The Future Unleashed... Every Thing»

Год выпуска: 2018
Страна: США
Жанр: ужасы, фантастика, триллер, драма, детектив
Продолжительность: 01:41:48
Перевод: Профессиональный (многоголосый, закадровый)
Субтитры: Русские, английские
Режиссер: Джулиус Она
В ролях:

Гугу Эмбата-Ро (Hamilton), Дэвид Ойелоуо (Kiel), Даниэль Брюль (Schmidt), Джон Ортис (Monk), Крис О’Дауд (Mundy), Аксель Хенни (Volkov), Чжан Цзыи (Tam), Элизабет Дебики (Jensen), Роджер Дейвис (Michael), Кловер Ни (Molly), Jordan Rivera (Ayana Age 7), Michael Stokes III (Isaac Age 7)
Описание:
В то время как земной мир пребывает на грани войны за ресурсы, в космосе группа учёных проводит испытания устройства, которое способно решить проблему энергетического кризиса. Несколько неудачных попыток вводят учёных в отчаяние. Топлива осталось на три запуска, и когда вдруг происходит удачный запуск устройства, радость длится недолго - команде предстоит иметь дело с очень странными явлениями.
Рейтинг:

MPAA: PG-13 - Детям до 13 лет просмотр не желателен
Качество: BDRip 1080p
Формат: MKV
Видео: AVC | 1920 x 800 | 59.940 fps | 15.0 Мбит/сек
Аудио #1: AC-3 | 5.1 | 48 kHz | 384 Кбит/сек | 16 bit | MVO (многоголосый, закадровый) NewStudio / RUS
Аудио #2: AC-3 | 5.1 | 48 kHz | 384 Кбит/сек | 16 bit | MVO (многоголосый, закадровый) Jaskier / RUS
Аудио #3: AC-3 | 5.1 | 48 kHz | 384 Кбит/сек | 16 bit | МVO (многоголосый, закадровый) BaibaKo / RUS
Аудио #4: Atmos / TrueHD | 7.1 | 48 kHz | 8757 Кбит/сек| 24 bit | Оригинал / ENG
Аудио #5: AC-3 | 5.1 | 48 kHz | 640 Кбит/сек | 16 bit | Оригинал / ENG
Навигация по главам: есть

General
Unique ID : 114403854536303044755311098283072619463 (0x561161840126A05EF127CE2D3B3303C7)
Complete name : D:\2018 Парадокс Кловерфилда BDRip 1080p 60 fps.mkv
Format : Matroska
Format version : Version 4 / Version 2
File size : 15.3 GiB
Duration : 1h 41mn
Overall bit rate mode : Variable
Overall bit rate : 21.5 Mbps
Movie name : Парадокс Кловерфилда / The Cloverfield Paradox
Encoded date : UTC 2019-02-05 20:16:32
Writing application : mkvmerge v22.0.0 ('At The End Of The World') 64-bit
Writing library : libebml v1.3.5 + libmatroska v1.4.8
DURATION : 01:35:59.712000000
NUMBER_OF_FRAMES : 1123
NUMBER_OF_BYTES : 34293
_STATISTICS_WRITING_APP : mkvmerge v22.0.0 ('At The End Of The World') 64-bit
_STATISTICS_WRITING_DATE_UTC : 2019-02-05 20:16:32
_STATISTICS_TAGS : BPS DURATION NUMBER_OF_FRAMES NUMBER_OF_BYTES
Video #1
ID : 1
Format : AVC
Format/Info : Advanced Video Codec
Format profile : High@L4.1
Format settings, CABAC : Yes
Format settings, ReFrames : 5 frames
Codec ID : V_MPEG4/ISO/AVC
Duration : 1h 41mn
Nominal bit rate : 15.0 Mbps
Width : 1 920 pixels
Height : 800 pixels
Display aspect ratio : 2.40:1
Frame rate : 59.940 fps
Color space : YUV
Chroma subsampling : 4:2:0
Bit depth : 8 bits
Scan type : Progressive
Bits/(Pixel*Frame) : 0.163
Writing library : x264 core 146 r2538 121396c
Encoding settings : cabac=1 / ref=5 / deblock=1:-3:-3 / analyse=0x3:0x113 / me=umh / subme=9 / psy=1 / psy_rd=1.00:0.25 / mixed_ref=1 / me_range=32 / chroma_me=1 / trellis=2 / 8x8dct=1 / cqm=0 / deadzone=6,6 / fast_pskip=1 / chroma_qp_offset=-4 / threads=12 / lookahead_threads=2 / sliced_threads=0 / nr=0 / decimate=0 / interlaced=0 / bluray_compat=0 / constrained_intra=0 / bframes=3 / b_pyramid=2 / b_adapt=2 / b_bias=0 / direct=3 / weightb=1 / open_gop=0 / weightp=2 / keyint=600 / keyint_min=60 / scenecut=40 / intra_refresh=0 / rc_lookahead=60 / rc=2pass / mbtree=1 / bitrate=15000 / ratetol=1.0 / qcomp=0.80 / qpmin=0 / qpmax=69 / qpstep=4 / cplxblur=20.0 / qblur=0.5 / vbv_maxrate=50000 / vbv_bufsize=50000 / nal_hrd=none / filler=0 / ip_ratio=1.10 / aq=1:0.50
Language : English
Default : Yes
Forced : No
DURATION : 01:41:48.870000000
NUMBER_OF_FRAMES : 366166
NUMBER_OF_BYTES : 11417426518
_STATISTICS_WRITING_APP : mkvmerge v22.0.0 ('At The End Of The World') 64-bit
_STATISTICS_WRITING_DATE_UTC : 2019-02-05 20:16:32
_STATISTICS_TAGS : BPS DURATION NUMBER_OF_FRAMES NUMBER_OF_BYTES
Audio #2
ID : 2
Format : AC-3
Format/Info : Audio Coding 3
Mode extension : CM (complete main)
Format settings, Endianness : Big
Codec ID : A_AC3
Duration : 1h 41mn
Bit rate mode : Constant
Bit rate : 384 Kbps
Channel(s) : 6 channels
Channel positions : Front: L C R, Side: L R, LFE
Sampling rate : 48.0 KHz
Bit depth : 16 bits
Compression mode : Lossy
Stream size : 280 MiB (2%)
Title : MVO
Language : Russian
Default : Yes
Forced : Yes
Audio #3
ID : 3
Format : AC-3
Format/Info : Audio Coding 3
Mode extension : CM (complete main)
Format settings, Endianness : Big
Codec ID : A_AC3
Duration : 1h 41mn
Bit rate mode : Constant
Bit rate : 384 Kbps
Channel(s) : 6 channels
Channel positions : Front: L C R, Side: L R, LFE
Sampling rate : 48.0 KHz
Bit depth : 16 bits
Compression mode : Lossy
Stream size : 280 MiB (2%)
Title : MVO
Language : Russian
Default : No
Forced : No
Audio #4
ID : 4
Format : AC-3
Format/Info : Audio Coding 3
Mode extension : CM (complete main)
Format settings, Endianness : Big
Codec ID : A_AC3
Duration : 1h 41mn
Bit rate mode : Constant
Bit rate : 448 Kbps
Channel(s) : 6 channels
Channel positions : Front: L C R, Side: L R, LFE
Sampling rate : 48.0 KHz
Bit depth : 16 bits
Compression mode : Lossy
Stream size : 326 MiB (2%)
Title : МVO
Language : Russian
Default : No
Forced : No
Audio #5
ID : 5
Format : TrueHD
Codec ID : A_TRUEHD
Duration : 1h 41mn
Bit rate mode : Variable
Maximum bit rate : 8 757 Kbps
Channel(s) : 8 channels
Channel positions : Front: L C R, Side: L R, Back: L R, LFE
Sampling rate : 48.0 KHz
Compression mode : Lossless
Title : Оригинал
Language : English
Default : No
Forced : No
Audio #6
ID : 6
Format : AC-3
Format/Info : Audio Coding 3
Mode extension : CM (complete main)
Format settings, Endianness : Big
Codec ID : A_AC3
Duration : 1h 41mn
Bit rate mode : Constant
Bit rate : 640 Kbps
Channel(s) : 6 channels
Channel positions : Front: L C R, Side: L R, LFE
Sampling rate : 48.0 KHz
Bit depth : 16 bits
Compression mode : Lossy
Stream size : 466 MiB (3%)
Title : Оригинал
Language : English
Default : No
Forced : No
Text #7
ID : 7
Format : UTF-8
Codec ID : S_TEXT/UTF8
Codec ID/Info : UTF-8 Plain Text
Language : Russian
Default : No
Forced : No
Text #8
ID : 8
Format : UTF-8
Codec ID : S_TEXT/UTF8
Codec ID/Info : UTF-8 Plain Text
Language : English
Default : No
Forced : No
Menu
00:00:00.000 : en:Chapter 1
00:07:12.974 : en:Chapter 2
00:11:27.562 : en:Chapter 3
00:16:43.252 : en:Chapter 4
00:22:24.426 : en:Chapter 5
00:30:01.842 : en:Chapter 6
00:34:28.650 : en:Chapter 7
00:38:57.919 : en:Chapter 8
00:45:57.004 : en:Chapter 9
00:50:46.919 : en:Chapter 10
00:55:23.779 : en:Chapter 11
01:04:00.503 : en:Chapter 12
01:10:28.433 : en:Chapter 13
01:19:29.974 : en:Chapter 14
01:25:49.978 : en:Chapter 15
01:32:21.161 : en:Chapter 16
01:36:26.114 : en:Chapter 17
piratbit.org



Скачать Парадокс Кловерфилда через торрент https://d.radikal.ru/d21/1904/6e/2caca8846290.png Скачать фильм Парадокс Кловерфилда через торрент бесплантно в хорошем качестве Описание: В то время как земной мир пребывает на грани войны за ресурсы, в космосе группа учёных проводит испытания устройства, которое ... 8.9 10 8
Торрент: Зарегистрирован [2019-04-14 11:27] · скачан: 153 раз
Статус: √ проверено
Размер: 15.3 GB
Как cкачать? Как скачать Парадокс Кловерфилда через торрент | qTorrent

% Раздел Тема Автор DL S | L
Фильмы (Blu-ray, BD-Remux, HDDVD) [ 22.81 GB ] Парадокс Кловерфилда / The Cloverfield Paradox [2018 Blu-Ray Remux 1080p] 3xMVO Леонид Ильич Скачать
1 | 0


>> Регистрируемся здесь <<






Отзывы и комментарии о схеме читаем и пишем здесь: ---> Отзывы и комментарии о схеме

Новые благодарочки в телеграм довольных пользователей:
скриншот   скриншот   скриншот   скриншот   скриншот
    Дорогой пользователь! Огромная просьба, поблагодарите релизера, оцените раздачу и оставьте свои комментарий, если Вы скачали Парадокс Кловерфилда через торрент бесплатно! Внесите свою лепту в развитие PiratBit!
    Комментировать посты могут только пользователи прошедшие не сложную регистрацию
    Показать сообщения:    

    Парадокс Кловерфилда через торрент
    Скачать бесплатно Парадокс Кловерфилда
    Парадокс Кловерфилда скачать торрент
    Парадокс Кловерфилда смотреть онлайн
    Cкачать фильм Парадокс Кловерфилда бесплатно
    Парадокс Кловерфилда скачать торрент в хорошем качестве
    Парадокс Кловерфилда смотреть онлайн бесплатно в хорошем качестве


    Вы не можете начинать темы
    Вы не можете отвечать на сообщения
    Вы не можете редактировать свои сообщения
    Вы не можете удалять свои сообщения
    Вы не можете голосовать в опросах
    Вы не можете прикреплять файлы к сообщениям
    Вы можете скачивать файлы