MEGA SALE -50% FORZA HORIZON 4 ULTIMATE+ВСЕ DLC+ОНЛАЙН всего за 599р. 299 руб. (супер цена). Внимание количество ограничено!!!

iTunes

1+1

iTunes

мы

iTunes

1

iTunes

Чернобыль

iTunes

Ральф против интернета

Лицензия

ПШазам

Лицензия

Игра престолов

Лицензия

30
pack

ВАЖНО

!!Акция!!

Alien_RageХит недели

RePack

Resident Evil 21

ИГРА 18+

pack

RePack

Metro:Exodus

!!Акция!!

Alien_Rage

RePack

fifa19

RePack

Assassins Creed: Odyssey

RePack

NEED FOR SPEED™ PAYBACK

3 сезон

9 сезон

Бесстыжие 9 сезон

Все сериалы

все сериалы на PB.wtf

RePack

FAR CRY 5
Ребята, катастрофически не хватает 7730р. для оплаты серверов за АВГУСТ (всвязи с блокировками трафик упал в 3 раза), 1-2р., выручайте.
  

Берлин, я люблю тебя / Berlin, I Love You (Дианна Агрон, Питер Челсом, Фернандо Эймбке) [2019, Драма, мелодрама, BDRip 1080p] MVO [HDRezka Studio] piratbit.org

Берлин, я люблю тебя через торрент piratbit.org

Раздают: 1 [ 0 KB/s ]
Размер: 13.16 GB | Добавлен: 5 мес. 4 д. назад | Торрент скачан:42 раза
Скачать  

14-04-2019 17:10 Берлин, я люблю тебя Скачать торрент  

Берлин, я люблю тебя / Berlin, I Love You Год выпуска: 2019
Страна: Германия
Жанр: Драма, мелодрама
Продолжительность: 01:59:59
Перевод: Профессиональный (многоголосый) | HDRezka Studio
Субтитры: Английские

Режиссер: Дианна Агрон, Питер Челсом, Фернандо Эймбке

rating

В ролях:

Кира Найтли, Хелен Миррен, Люк Уилсон, Джим Стёрджесс, Микки Рурк, Дженна Деван, Хайден Панеттьери, Эмили Бичем, Дианна Агрон, Вероника Феррес

Описание:

Данная картина представляет собой коллекцию из десяти романтических историй, которая продолжает традицию киноальманахов о больших чувствах в больших городах. На улицах многоликого Берлина собрались такие разные герои, у которых свои заботы, радости и приключения, своя судьба и своя дорога.

Качество: BDRip 1080p
Формат: MKV

Видео: MPEG-4 AVC, 14.0 Mбит/с, 1920x1040, 23.976 кадр/с
Аудио#1: Русский: AC3, 2 ch, 192 Кбит/с - HDRezka Studio
Аудио#2: Английский: DTS, 6 ch, 1509 Кбит/с - Оригинал
скриншот  скриншот  скриншот  скриншот  скриншот  

General
Unique ID : 236978233016465440784143651928131425639 (0xB24858F6A40602B5B14BC58A59D2D567)
Complete name : G:Berlin.I.Love.You.2019.BDRip.1080p.mkv
Format : Matroska
Format version : Version 4 / Version 2
File size : 13.2 GiB
Duration : 1 h 59 min
Overall bit rate : 15.7 Mb/s
Encoded date : UTC 2019-04-14 11:59:38
Writing application : mkvmerge v20.0.0 ('I Am The Sun') 64-bit
Writing library : libebml v1.3.5 + libmatroska v1.4.8

Video
ID : 1
Format : AVC
Format/Info : Advanced Video Codec
Format profile : High@L4.1
Format settings : CABAC / 4 Ref Frames
Format settings, CABAC : Yes
Format settings, RefFrames : 4 frames
Codec ID : V_MPEG4/ISO/AVC
Duration : 1 h 59 min
Bit rate : 14.0 Mb/s
Width : 1 920 pixels
Height : 1 040 pixels
Display aspect ratio : 1.85:1
Frame rate mode : Constant
Frame rate : 23.976 (24000/1001) FPS
Color space : YUV
Chroma subsampling : 4:2:0
Bit depth : 8 bits
Scan type : Progressive
Bits/(Pixel*Frame) : 0.292
Stream size : 11.7 GiB (89%)
Writing library : x264 core 155 r2867+74 66b5600 t_mod_Custom_2 [8-bit@all X86_64]
Encoding settings : cabac=1 / ref=4 / deblock=1:-3:-3 / analyse=0x3:0x133 / me=umh / subme=11 / psy=1 / fade_compensate=0.00 / psy_rd=1.00:0.00 / mixed_ref=1 / me_range=32 / chroma_me=1 / trellis=2 / 8x8dct=1 / cqm=0 / deadzone=21,11 / fast_pskip=0 / chroma_qp_offset=-2 / threads=12 / lookahead_threads=2 / sliced_threads=0 / nr=0 / decimate=0 / interlaced=0 / bluray_compat=0 / constrained_intra=0 / fgo=0 / bframes=8 / b_pyramid=2 / b_adapt=2 / b_bias=0 / direct=3 / weightb=1 / open_gop=0 / weightp=2 / keyint=250 / keyint_min=23 / scenecut=40 / intra_refresh=0 / rc=2pass / mbtree=0 / bitrate=14000 / ratetol=1.0 / qcomp=0.60 / qpmin=0:0:0 / qpmax=69:69:69 / qpstep=4 / cplxblur=20.0 / qblur=0.5 / ip_ratio=1.30 / pb_ratio=1.20 / aq=3:0.70 / aq-sensitivity=10.00 / aq-factor=1.00:1.00:1.00 / aq2=0 / aq3=0
Language : English
Default : Yes
Forced : No
Color range : Limited
Matrix coefficients : BT.709

Audio #1
ID : 2
Format : AC-3
Format/Info : Audio Coding 3
Codec ID : A_AC3
Duration : 1 h 59 min
Bit rate mode : Constant
Bit rate : 192 kb/s
Channel(s) : 2 channels
Channel positions : Front: L R
Sampling rate : 48.0 kHz
Frame rate : 31.250 FPS (1536 SPF)
Bit depth : 16 bits
Compression mode : Lossy
Stream size : 165 MiB (1%)
Title : MVO HDrezka Studio
Language : Russian
Service kind : Complete Main
Default : Yes
Forced : No

Audio #2
ID : 3
Format : DTS
Format/Info : Digital Theater Systems
Codec ID : A_DTS
Duration : 1 h 59 min
Bit rate mode : Constant
Bit rate : 1 509 kb/s
Channel(s) : 6 channels
Channel positions : Front: L C R, Side: L R, LFE
Sampling rate : 48.0 kHz
Frame rate : 93.750 FPS (512 SPF)
Bit depth : 24 bits
Compression mode : Lossy
Stream size : 1.26 GiB (10%)
Language : English
Default : No
Forced : No

Text
ID : 4
Format : UTF-8
Codec ID : S_TEXT/UTF8
Codec ID/Info : UTF-8 Plain Text
Duration : 1 h 52 min
Bit rate : 44 b/s
Count of elements : 1245
Stream size : 37.1 KiB (0%)
Language : English
Default : No
Forced : No

Menu
00:00:00.000 : en:00:00:00.000
00:08:10.156 : en:00:08:10.156
00:15:01.526 : en:00:15:01.526
00:20:33.149 : en:00:20:33.149
00:29:04.326 : en:00:29:04.326
00:39:58.938 : en:00:39:58.938
00:45:10.082 : en:00:45:10.082
00:53:01.095 : en:00:53:01.095
00:55:06.637 : en:00:55:06.637
01:06:15.930 : en:01:06:15.930
01:15:34.989 : en:01:15:34.989
01:19:08.494 : en:01:19:08.494
01:27:20.986 : en:01:27:20.986
01:37:14.620 : en:01:37:14.620
01:46:39.977 : en:01:46:39.977
01:52:13.560 : en:01:52:13.560

piratbit.org



Скачать Берлин, я люблю тебя через торрент https://c.radikal.ru/c37/1904/3f/131ac67f7f51.png Скачать фильм Берлин, я люблю тебя через торрент бесплантно в хорошем качестве Описание: Данная картина представляет собой коллекцию из десяти романтических историй, которая продолжает традицию киноальманахов о больших ... 10 10 4
Торрент: Зарегистрирован [2019-04-14 17:10] · скачан: 42 раз
Статус: T временная
Размер: 13.16 GB
Как cкачать? Как скачать Берлин, я люблю тебя через торрент | qTorrent


>> Регистрируемся здесь <<






Отзывы и комментарии о схеме читаем и пишем здесь: ---> Отзывы и комментарии о схеме

Новые благодарочки в телеграм довольных пользователей:
скриншот   скриншот   скриншот   скриншот   скриншот
    Дорогой пользователь! Огромная просьба, поблагодарите релизера, оцените раздачу и оставьте свои комментарий, если Вы скачали Берлин, я люблю тебя через торрент бесплатно! Внесите свою лепту в развитие PiratBit!
    Комментировать посты могут только пользователи прошедшие не сложную регистрацию
    Показать сообщения:    

    Берлин, я люблю тебя через торрент
    Скачать бесплатно Берлин, я люблю тебя
    Берлин, я люблю тебя скачать торрент
    Берлин, я люблю тебя смотреть онлайн
    Cкачать фильм Берлин, я люблю тебя бесплатно
    Берлин, я люблю тебя скачать торрент в хорошем качестве
    Берлин, я люблю тебя смотреть онлайн бесплатно в хорошем качестве


    Вы не можете начинать темы
    Вы не можете отвечать на сообщения
    Вы не можете редактировать свои сообщения
    Вы не можете удалять свои сообщения
    Вы не можете голосовать в опросах
    Вы не можете прикреплять файлы к сообщениям
    Вы можете скачивать файлы