MEGA SALE -50% FORZA HORIZON 4 ULTIMATE+ВСЕ DLC+ОНЛАЙН всего за 599р. 299 руб. (супер цена). Внимание количество ограничено!!!

iTunes

1+1

iTunes

мы

iTunes

1

iTunes

Чернобыль

iTunes

Ральф против интернета

Лицензия

ПШазам

Лицензия

Игра престолов

Лицензия

30
pack

ВАЖНО

!!Акция!!

Alien_RageХит недели

RePack

Resident Evil 21

ИГРА 18+

pack

RePack

Metro:Exodus

!!Акция!!

Alien_Rage

RePack

fifa19

RePack

Assassins Creed: Odyssey

RePack

NEED FOR SPEED™ PAYBACK

3 сезон

9 сезон

Бесстыжие 9 сезон

Все сериалы

все сериалы на PB.wtf

RePack

FAR CRY 5
Ребята, катастрофически не хватает 7730р. для оплаты серверов за АВГУСТ (всвязи с блокировками трафик упал в 3 раза), 1-2р., выручайте.
  

Хеллбой / Hellboy (Нил Маршалл) [2019, фэнтези, боевик, приключения, TS 720p] DUB piratbit.org

Хеллбой через торрент piratbit.org

Размер: 4.08 GB | Добавлен: 5 мес. 4 д. назад | Торрент скачан:405 раз
Скачать  

14-04-2019 19:40 Хеллбой Скачать торрент  

Хеллбой / Hellboy
Год выпуска: 2019
Страна: США
Жанр: фэнтези, боевик, приключения
Продолжительность: 01:49:22
Перевод: Дублированный
Субтитры: отсутствуют

Режиссер: Нил Маршалл

rating

В ролях:

Дэвид Харбор, Иэн МакШейн, Милла Йовович, Марк Стэнли, Брин Глисон, Надя Керанова, Мария Тепавичарова, Ана Тобакова, Пенелопа Митчелл, Терри Рендал

Описание:

Близится час битвы Хеллбоя с Кровавой королевой, жаждущей отомстить всему человечеству за века в заточении. Оказавшись в эпицентре столкновения миров людей и монстров, Хеллбою придется пройти через ад, чтобы предотвратить надвигающийся апокалипсис.

Качество: TS 720p
Формат: MKV

Видео: h.264, 5 000 Кбит/с, 1280x536
Аудио: Русский, (AC3, 2 ch, 384 Кбит/с)
скриншот  скриншот  скриншот  

Общее
Уникальный идентификатор : 240898937675689682647496152791804773084 (0xB53B72A0AA7EA0EBAE9254234AD382DC)
Полное имя : D:\XeLLboy.2O19.D.TS.72Op.mkv
Формат : Matroska
Версия формата : Version 2
Размер файла : 4,08 Гбайт
Продолжительность : 1 ч. 49 м.
Режим общего битрейта : Переменный
Общий поток : 5343 Кбит/сек
Дата кодирования : UTC 2019-04-12 22:05:40
Программа кодирования : mkvmerge v8.3.0 ('Over the Horizon') 64bit
Библиотека кодирования : libebml v1.3.1 + libmatroska v1.4.2

Видео
Идентификатор : 1
Формат : AVC
Формат/Информация : Advanced Video Codec
Профиль формата : High@L4.1
Параметр CABAC формата : Да
Параметр RefFrames формата : 4 кадра
Идентификатор кодека : V_MPEG4/ISO/AVC
Продолжительность : 1 ч. 49 м.
Вид битрейта : Переменный
Битрейт : 5000 Кбит/сек
Максимальный битрейт : 5000 Кбит/сек
Ширина : 1280 пикселей
Высота : 536 пикселей
Соотношение сторон : 2,40:1
Режим частоты кадров : Постоянный
Частота кадров : 23,976 (24000/1001) кадра/сек
Стандарт вещания : Component
Цветовое пространство : YUV
Субдискретизация насыщенности : 4:2:0
Битовая глубина : 8 бит
Тип развёртки : Прогрессивная
Бит/(Пиксели*Кадры) : 0.295
Размер потока : 3,71 Гбайт (91%)
Default : Да
Forced : Нет
Цветовой диапазон : Limited
Основные цвета : BT.709
Характеристики трансфера : BT.709
Коэффициенты матрицы : BT.709

Аудио
Идентификатор : 2
Формат : AC-3
Формат/Информация : Audio Coding 3
Расширение режима : CM (complete main)
Параметр Endianness формата : Big
Идентификатор кодека : A_AC3
Продолжительность : 1 ч. 49 м.
Вид битрейта : Постоянный
Битрейт : 384 Кбит/сек
Каналы : 2 канала
Расположение каналов : Front: L R
Частота : 48,0 КГц
Частота кадров : 31,250 кадров/сек (1536 spf)
Метод сжатия : С потерями
Размер потока : 300 Мбайт (7%)
Default : Да
Forced : Нет

piratbit.org



Скачать Хеллбой через торрент https://a.radikal.ru/a31/1904/98/9fcc81edafee.jpg Скачать фильм Хеллбой через торрент бесплантно в хорошем качестве Описание: Близится час битвы Хеллбоя с Кровавой королевой, жаждущей отомстить всему человечеству за века в заточении. Оказавшись в ... 9.6 10 16
Торрент: Зарегистрирован [2019-04-14 19:40] · скачан: 405 раз
Статус: T временная
Размер: 4.08 GB
Как cкачать? Как скачать Хеллбой через торрент | qTorrent

% Раздел Тема Автор DL S | L
Ultra HD (UHD: 2K, 4K, 8K) — видео сверхвысокой чёткости [ 56.96 GB ] Хеллбой / Hellboy [2019 UHD BDRemux 2160p] [Dolby Vision TV] DUB + MVO [СВ Студия] sheker187 Скачать
1 | 1
Фильмы [HD 720p, 1080p] (Хороший звук DUB, MVO) [ 11.01 GB ] Хеллбой / Hellboy [2019 UHD BDRip 1080p] + MVO [СВ Студия] sheker187 Скачать
5 | 0
Фильмы 2019 [DVDrip, WEB-DLRip, HDrip] (DUB, MVO) [ 2.12 GB ] Хеллбой / Hellboy [2019 BDRip-AVC] bober100 Скачать
3 | 0
Фильмы [HD 720p, 1080p] (Хороший звук DUB, MVO) [ 7.74 GB ] Хеллбой / Hellboy [2019 BDRip 720p] +MVO [СВ Студия] bober100 Скачать
3 | 0
Фильмы 2019 [DVDrip, WEB-DLRip, HDrip] (DUB, MVO) [ 2.13 GB ] Хеллбой / Hellboy [2019 BDRip] bober100 Скачать
2 | 0
Фильмы 2019 [DVDrip, WEB-DLRip, HDrip] (DUB, MVO) [ 1.46 GB ] Хеллбой / Hellboy [2019 BDRip] bober100 Скачать
1 | 0
Фильмы (Blu-ray, BD-Remux, HDDVD) [ 29.45 GB ] Хеллбой / Hellboy [2019 BD Remux 1080p] +MVO [СВ Студия] bober100 Скачать
2 | 0


Последний раз редактировалось: bober100 (2019-04-16 04:52), всего редактировалось 1 раз


>> Регистрируемся здесь <<






Отзывы и комментарии о схеме читаем и пишем здесь: ---> Отзывы и комментарии о схеме

Новые благодарочки в телеграм довольных пользователей:
скриншот   скриншот   скриншот   скриншот   скриншот

15-04-2019 20:37 Хеллбой Скачать торрент  

Cалют!!!А когда лицуха?piratbit.org



03-07-2019 03:10 Хеллбой Скачать торрент  

Топик был перенесен из форума Фильмы (мультфильмы) cо спонсором показа (Новинки AVI/MKV) в форум Для поглощённых раздач

Причина переноса: Хеллбой / Hellboy
killermax2013piratbit.org



    Дорогой пользователь! Огромная просьба, поблагодарите релизера, оцените раздачу и оставьте свои комментарий, если Вы скачали Хеллбой через торрент бесплатно! Внесите свою лепту в развитие PiratBit!
    Комментировать посты могут только пользователи прошедшие не сложную регистрацию
    Показать сообщения:    

    Хеллбой через торрент
    Скачать бесплатно Хеллбой
    Хеллбой скачать торрент
    Хеллбой смотреть онлайн
    Cкачать фильм Хеллбой бесплатно
    Хеллбой скачать торрент в хорошем качестве
    Хеллбой смотреть онлайн бесплатно в хорошем качестве


    Вы не можете начинать темы
    Вы не можете отвечать на сообщения
    Вы не можете редактировать свои сообщения
    Вы не можете удалять свои сообщения
    Вы не можете голосовать в опросах
    Вы не можете прикреплять файлы к сообщениям
    Вы можете скачивать файлы