Наша группа ВК в очередной раз забанена мы уходим в Телеграм, присоединяйтесь!!!

Лицензия

30

iTunes

мы

iTunes

1

1 сезон

Чернобыль

iTunes

1+1

iTunes

Закатать в асфальт

8 сезон

Игра престолов

1 сезон

Ральф против интернета

ИГРА 18+

pack

ВАЖНО

!!Акция!!

Alien_RageХит недели

RePack

Resident Evil 21
pack

RePack

Metro:Exodus

!!Акция!!

Alien_Rage

RePack

fifa19

RePack

Assassins Creed: Odyssey

RePack

NEED FOR SPEED™ PAYBACK

3 сезон

9 сезон

Бесстыжие 9 сезон

Все сериалы

все сериалы на PB.wtf

RePack

FAR CRY 5
Ребята, катастрофически не хватает 2730р. для оплаты серверов за АПРЕЛЬ (всвязи с блокировками трафик упал в 3 раза), 1-2р., выручайте.
  

Время не ждёт / Shun liu Ni liu (Цуй Харк) [2000, драма, боевик, криминал, триллер, BDRip 720p by msltel] MVO piratbit.org

Время не ждёт через торрент piratbit.org

Размер: 4.39 GB | Добавлен: 1 мес. 10 д. назад | Торрент скачан:8 раз
Скачать  

15-04-2019 05:36 Время не ждёт Скачать торрент  

Название: Время не ждёт
Оригинальное название: Shun liu Ni liu
Год выпуска: 2000
Страна: Гонконг, Китай
Жанр: драма, боевик, криминал, триллер
Продолжительность: 01:53:19
Перевод: профессиональный многоголосый

Режиссер: Цуй Харк
В ролях: Николас Тсе, Ву Бай, Кэнди Ло, Кэти Цуй, Энтони Вон, Альберт, Тсу Чун Бон, Уильям Чан, Джек Као, Чанг Хунг Оун

О фильме: Тайлеру, 21-летнему жителю Гонконга, всю жизнь непросто завоевать доверие людей. Он тайно мечтает о хорошей жизни в Южной Америке, но вскоре ему предстоит столкнуться с реальностью грядущего отцовства...



Качество: BDRip 720p
Формат: MKV
Видео: MPEG-4 AVC, 4707 Кбит/с, 1280x544
Аудио 1: русский, AC3, 384 kbps, 6 ch, 48 kHz [закадровый многоголосый]
Аудио 2: китайский, AC3, 448 kbps, 6 ch, 48 kHz [оригинал]
Субтитры: английские
Главы/чаптеры
Общее
Уникальный идентификатор : 181175862168821720524681186029930526971 (0x884D33AA27B4DD28960BEE49A3A7B8FB)
Полное имя : D:\Video\Время не ждёт.2000.BDRip 720p by msltel.mkv
Формат : Matroska
Версия формата : Version 4
Размер файла : 4,39 Гбайт
Продолжительность : 1 ч. 53 м.
Общий поток : 5533 Кбит/сек
Название фильма : Rip by msltel
Дата кодирования : UTC 2019-04-14 14:19:05
Программа кодирования : mkvmerge v8.2.0 ('World of Adventure') 64bit
Библиотека кодирования : libebml v1.3.1 + libmatroska v1.4.2

Видео
Идентификатор : 1
Формат : AVC
Формат/Информация : Advanced Video Codec
Профиль формата : High@L4.1
Настройки формата : CABAC / 9 Ref Frames
Параметр CABAC формата : Да
Параметр RefFrames формата : 9 кадров
Идентификатор кодека : V_MPEG4/ISO/AVC
Продолжительность : 1 ч. 53 м.
Битрейт : 4707 Кбит/сек
Ширина : 1280 пикселей
Высота : 544 пикселя
Соотношение сторон : 2,35:1
Режим частоты кадров : Постоянный
Частота кадров : 23,976 (24000/1001) кадра/сек
Цветовое пространство : YUV
Субдискретизация насыщенности : 4:2:0
Битовая глубина : 8 бит
Тип развёртки : Прогрессивная
Бит/(Пиксели*Кадры) : 0.282
Размер потока : 3,73 Гбайт (85%)
Библиотека кодирования : x264 core 157 r2935 545de2f
Настройки программы : cabac=1 / ref=9 / deblock=1:-2:-2 / analyse=0x3:0x113 / me=umh / subme=11 / psy=1 / psy_rd=1.00:0.15 / mixed_ref=1 / me_range=32 / chroma_me=1 / trellis=2 / 8x8dct=1 / cqm=0 / deadzone=21,11 / fast_pskip=0 / chroma_qp_offset=-3 / threads=6 / lookahead_threads=1 / sliced_threads=0 / nr=0 / decimate=1 / interlaced=0 / bluray_compat=0 / constrained_intra=0 / bframes=7 / b_pyramid=2 / b_adapt=2 / b_bias=0 / direct=1 / weightb=1 / open_gop=0 / weightp=2 / keyint=230 / keyint_min=23 / scenecut=40 / intra_refresh=0 / rc_lookahead=40 / rc=crf / mbtree=1 / crf=22.0 / qcomp=0.60 / qpmin=0 / qpmax=69 / qpstep=4 / vbv_maxrate=50000 / vbv_bufsize=62500 / crf_max=0.0 / nal_hrd=none / filler=0 / ip_ratio=1.40 / aq=1:1.00
Язык : Chinese
Default : Да
Forced : Нет

Аудио #1
Идентификатор : 2
Формат : AC-3
Формат/Информация : Audio Coding 3
Коммерческое название : Dolby Digital
Идентификатор кодека : A_AC3
Продолжительность : 1 ч. 53 м.
Вид битрейта : Постоянный
Битрейт : 384 Кбит/сек
Каналы : 6 каналов
Channel layout : L R C LFE Ls Rs
Частота : 48,0 КГц
Частота кадров : 31,250 кадров/сек (1536 SPF)
Битовая глубина : 16 бит
Метод сжатия : С потерями
Размер потока : 311 Мбайт (7%)
Заголовок : MVO
Язык : Russian
ServiceKind/String : Complete Main
Default : Да
Forced : Нет

Аудио #2
Идентификатор : 3
Формат : AC-3
Формат/Информация : Audio Coding 3
Коммерческое название : Dolby Digital
Идентификатор кодека : A_AC3
Продолжительность : 1 ч. 53 м.
Вид битрейта : Постоянный
Битрейт : 448 Кбит/сек
Каналы : 6 каналов
Channel layout : L R C LFE Ls Rs
Частота : 48,0 КГц
Частота кадров : 31,250 кадров/сек (1536 SPF)
Битовая глубина : 16 бит
Метод сжатия : С потерями
Размер потока : 364 Мбайт (8%)
Заголовок : original
Язык : Chinese
ServiceKind/String : Complete Main
Default : Нет
Forced : Нет

Текст
Идентификатор : 4
Формат : UTF-8
Идентификатор кодека : S_TEXT/UTF8
Идентификатор кодека/Информация : UTF-8 Plain Text
Продолжительность : 1 ч. 49 м.
Битрейт : 39 бит/сек
ElementCount : 1036
Размер потока : 31,9 Кбайт (0%)
Заголовок : английские
Язык : English
Default : Нет
Forced : Нет

Меню
00:00:00.000 : en:01
00:07:30.450 : en:02
00:15:30.346 : en:03
00:22:33.185 : en:04
00:35:59.157 : en:05
00:45:44.283 : en:06
00:53:05.557 : en:07
01:02:21.571 : en:08
01:10:38.568 : en:09
01:22:03.210 : en:10
01:35:21.883 : en:11
01:42:20.134 : en:12
01:50:52.479 : en:13
piratbit.org



Скачать Время не ждёт через торрент https://a.radikal.ru/a00/1904/f4/83d5400a5e22.jpg Скачать фильм Время не ждёт через торрент бесплантно в хорошем качестве О фильме: Тайлеру, 21-летнему жителю а, всю жизнь непросто завоевать доверие людей. Он тайно мечтает о хорошей жизни в Южной ... 5 10 1
Info! Золотая раздача, скачанное не засчитывается.
Торрент: Зарегистрирован [2019-04-15 05:36] · скачан: 8 раз
Статус: √ проверено
Размер: 4.39 GB
Как cкачать? Как скачать Время не ждёт через торрент | qTorrent

% Раздел Тема Автор DL S | L
Азиатские фильмы [ 10.5 GB ] Время не ждёт / Shun liu Ni liu [2000 BDRip 1080p by msltel] MVO msltel Скачать
1 | 0


>> Регистрируемся здесь <<






Отзывы и комментарии о схеме читаем и пишем здесь: ---> Отзывы и комментарии о схеме

Новые благодарочки в телеграм довольных пользователей:
скриншот   скриншот   скриншот   скриншот   скриншот

15-04-2019 05:43 Время не ждёт Скачать торрент  

Топик был перенесен из форума Фильмы [HD 720p, 1080p] (Хороший звук DUB, MVO) в форум Азиатские фильмы


bober100piratbit.org



    Дорогой пользователь! Огромная просьба, поблагодарите релизера, оцените раздачу и оставьте свои комментарий, если Вы скачали Время не ждёт через торрент бесплатно! Внесите свою лепту в развитие PiratBit!
    Комментировать посты могут только пользователи прошедшие не сложную регистрацию
    Показать сообщения:    

    Время не ждёт через торрент
    Скачать бесплатно Время не ждёт
    Время не ждёт скачать торрент
    Время не ждёт смотреть онлайн
    Cкачать фильм Время не ждёт бесплатно
    Время не ждёт скачать торрент в хорошем качестве
    Время не ждёт смотреть онлайн бесплатно в хорошем качестве


    Вы не можете начинать темы
    Вы не можете отвечать на сообщения
    Вы не можете редактировать свои сообщения
    Вы не можете удалять свои сообщения
    Вы не можете голосовать в опросах
    Вы не можете прикреплять файлы к сообщениям
    Вы можете скачивать файлы