ВНИМАНИЕ!!! Роскомнадзор заблокировал piratbit.org в РФ навсегда, просьба установить наш плагин который откроет доступ из РФ, для Хром, Ябраузер, Опера -> Mozilla FireFox и перейти на pb.wtf. о плагине

Лицензия

30

MVO

Как приручить дракона 3

11 сезон

1

1 сезон

гринч

iTunes

Стекло

iTunes

Клаустрофобы

8 сезон

Игра престолов

iTunes

Ральф против интернета Хит недели

ИГРА 18+

pack

ВАЖНО

!!Акция!!

Alien_RageХит недели

RePack

Resident Evil 21
pack

RePack

Metro:Exodus

!!Акция!!

Alien_Rage

RePack

fifa19

RePack

Assassins Creed: Odyssey

RePack

NEED FOR SPEED™ PAYBACK

3 сезон

9 сезон

Бесстыжие 9 сезон

Все сериалы

все сериалы на PB.wtf

RePack

FAR CRY 5
Ребята, критически не успеваем дособрать 3200р. для оплаты серверов за Март (всвязи с блокировками трафик упал в 3 раза), 1-2р., выручайте.
  

Смотри мою любовь (Александр Сухарев) [2019, Драма, спорт, TS 720p] piratbit.org

Смотри мою любовь через торрент piratbit.org

Качают: 1 [ 0 KB/s ]
Размер: 2.4 GB | Добавлен: 6 д. назад | Торрент скачан:3 раза
Скачать  

15-04-2019 08:18 Смотри мою любовь Скачать торрент  

Смотри мою любовь Год выпуска: 2019
Страна: Россия
Жанр: Драма, спорт
Продолжительность: 01:24:48
Перевод: Не требуется
Субтитры: отсутствуют

Режиссер: Александр Сухарев



В ролях:

Олег Гаас, Дарья Белодед, Сергей Маховиков, Георгий Мартиросян, Ирина Подгорная

Описание:

Талантливый юноша Александр, воспитанный в детском доме, с ранних лет увлечен жестким мужским видом спорта - ММА. Он усиленно готовится к титульному бою, но в амбициозные планы юноши неожиданно вмешивается Его Величество Случай. На тренировочных сборах в Крыму, он встречает загадочную глухую девушку Дину. Она - фотограф и уделяет особое внимание рукам, ведь руки - это ее голос. Преодолевая трудности в общении, молодые люди влюбляются друг в друга. Что принесет эта любовь? Ведь девушка и юноша принадлежат разным мирам, миру глухих и миру слышащих... Смогут ли молодые люди остаться вместе, преодолев коварства судьбы, стать счастливыми?

Качество: TS 720p
Формат: MKV

Видео: h.264,3 670 Кбит/с, 1280x536
Аудио#1: Русский, (AC3, 2 ch, 384 Кбит/с)
скриншот  скриншот  скриншот  

Общее
Уникальный идентификатор : 204376639732055376787347715767050557681 (0x99C1825066A3053CBA9742EB2445D8F1)
Полное имя : D:\SmoTri.Mou.LuBoFF.2O19.O.TS.72Op.mkv
Формат : Matroska
Версия формата : Version 2
Размер файла : 2,40 Гбайт
Продолжительность : 1 ч. 24 м.
Режим общего битрейта : Переменный
Общий поток : 4056 Кбит/сек
Дата кодирования : UTC 2019-04-14 19:13:46
Программа кодирования : mkvmerge v8.3.0 ('Over the Horizon') 64bit
Библиотека кодирования : libebml v1.3.1 + libmatroska v1.4.2

Видео
Идентификатор : 1
Формат : AVC
Формат/Информация : Advanced Video Codec
Профиль формата : High@L4.1
Параметр CABAC формата : Да
Параметр RefFrames формата : 4 кадра
Идентификатор кодека : V_MPEG4/ISO/AVC
Продолжительность : 1 ч. 24 м.
Вид битрейта : Переменный
Битрейт : 3670 Кбит/сек
Максимальный битрейт : 4000 Кбит/сек
Ширина : 1280 пикселей
Высота : 536 пикселей
Соотношение сторон : 2,40:1
Режим частоты кадров : Постоянный
Частота кадров : 23,976 (24000/1001) кадра/сек
Стандарт вещания : Component
Цветовое пространство : YUV
Субдискретизация насыщенности : 4:2:0
Битовая глубина : 8 бит
Тип развёртки : Прогрессивная
Бит/(Пиксели*Кадры) : 0.218
Размер потока : 2,13 Гбайт (89%)
Default : Да
Forced : Нет
Цветовой диапазон : Limited
Основные цвета : BT.709
Характеристики трансфера : BT.709
Коэффициенты матрицы : BT.709

Аудио
Идентификатор : 2
Формат : AC-3
Формат/Информация : Audio Coding 3
Расширение режима : CM (complete main)
Параметр Endianness формата : Big
Идентификатор кодека : A_AC3
Продолжительность : 1 ч. 24 м.
Вид битрейта : Постоянный
Битрейт : 384 Кбит/сек
Каналы : 2 канала
Расположение каналов : Front: L R
Частота : 48,0 КГц
Частота кадров : 31,250 кадров/сек (1536 spf)
Метод сжатия : С потерями
Размер потока : 233 Мбайт (9%)
Default : Да
Forced : Нет

piratbit.org



Скачать Смотри мою любовь через торрент https://a.radikal.ru/a39/1904/9c/12051abb4560.jpg Скачать фильм Смотри мою любовь через торрент бесплантно в хорошем качестве Описание: Талантливый юноша Александр, воспитанный в детском доме, с ранних лет увлечен жестким мужским видом спорта - ММА. Он усиленно ... 10 10 2
Торрент: Зарегистрирован [2019-04-15 08:18] · скачан: 3 раз
Статус: T временная
Размер: 2.4 GB
Как cкачать? Как скачать Смотри мою любовь через торрент | qTorrent

% Раздел Тема Автор DL S | L
T Наши фильмы (мультфильмы) cо спонсором показа (Новинки AVI/MKV) [ 1.37 GB ] Смотри мою любовь [2019 TS] bober100 Скачать
2 | 0


>> Регистрируемся здесь <<






Отзывы и комментарии о схеме читаем и пишем здесь: ---> Отзывы и комментарии о схеме

Новые благодарочки в телеграм довольных пользователей:
скриншот   скриншот   скриншот   скриншот   скриншот

15-04-2019 11:02 Смотри мою любовь Скачать торрент  

Описание заинтриговало. Стоит посмотреть этот фильм,
но в качестве.
piratbit.org



    Дорогой пользователь! Огромная просьба, поблагодарите релизера, оцените раздачу и оставьте свои комментарий, если Вы скачали Смотри мою любовь через торрент бесплатно! Внесите свою лепту в развитие PiratBit!
    Комментировать посты могут только пользователи прошедшие не сложную регистрацию
    Показать сообщения:    

    Смотри мою любовь через торрент
    Скачать бесплатно Смотри мою любовь
    Смотри мою любовь скачать торрент
    Смотри мою любовь смотреть онлайн
    Cкачать фильм Смотри мою любовь бесплатно
    Смотри мою любовь скачать торрент в хорошем качестве
    Смотри мою любовь смотреть онлайн бесплатно в хорошем качестве


    Вы не можете начинать темы
    Вы не можете отвечать на сообщения
    Вы не можете редактировать свои сообщения
    Вы не можете удалять свои сообщения
    Вы не можете голосовать в опросах
    Вы не можете прикреплять файлы к сообщениям
    Вы можете скачивать файлы