Наша группа ВК в очередной раз забанена мы уходим в Телеграм, присоединяйтесь!!!

Лицензия

30

iTunes

Как приручить дракона 3

iTunes

1

1 сезон

Чернобыль

iTunes

Снегоуборщик

iTunes

Закатать в асфальт

8 сезон

Игра престолов

iTunes

Ральф против интернета Хит недели

ИГРА 18+

pack

ВАЖНО

!!Акция!!

Alien_RageХит недели

RePack

Resident Evil 21
pack

RePack

Metro:Exodus

!!Акция!!

Alien_Rage

RePack

fifa19

RePack

Assassins Creed: Odyssey

RePack

NEED FOR SPEED™ PAYBACK

3 сезон

9 сезон

Бесстыжие 9 сезон

Все сериалы

все сериалы на PB.wtf

RePack

FAR CRY 5
Ребята, катастрофически не хватает 2730р. для оплаты серверов за АПРЕЛЬ (всвязи с блокировками трафик упал в 3 раза), 1-2р., выручайте.
  

Остров Гуава / Guava Island (Хиро Мурай) [2019, триллер, комедия, WEB-DL 720p] MVO ["Синема УС"] piratbit.org

Остров Гуава через торрент piratbit.org

Раздают: 2 [ 0 KB/s ]
Размер: 2.26 GB | Добавлен: 1 мес. 7 д. назад | Торрент скачан:44 раза
Скачать  

15-04-2019 08:48 Остров Гуава Скачать торрент  

Остров Гуава / Guava IslandГод выпуска: 2019
Страна: США
Жанр: триллер, комедия
Продолжительность: 00:56:26
Перевод: Любительский (многоголосый) | "Синема УС"
Субтитры: отсутствуют

Режиссер: Хиро Мурай

rating

В ролях:

Дональд Гловер, Рианна, Летишиа Райт, Нонсо Анози, Энрике Куиньонес, Луис Энрике Карререс, Ален Родригез, Бетиза Бисмарк, Педро Хулио Диас, Майкл Рикардо Креспо Карденас

Описание:

Музыкант задумывает о том, чтобы осуществить план, чтобы пробиться в хорошую жизнь, что быстро заставляет его задуматься.

Качество: WEB-DL 720p
Формат: MKV

Видео: h.264,5 356 Кбит/с, 960x720
Аудио#1: Русский, (AC3, 2 ch, 384 Кбит/с)
скриншот  скриншот  скриншот  

Общее
Уникальный идентификатор : 229526555181661084488214654448140693369 (0xACAD34E17C60B963A853D5CEF3022F79)
Полное имя : D:\Guava.Island.2019.P.WEB-DL.72Op.mkv
Формат : Matroska
Версия формата : Version 2
Размер файла : 2,26 Гбайт
Продолжительность : 56 м. 26 с.
Режим общего битрейта : Переменный
Общий поток : 5741 Кбит/сек
Дата кодирования : UTC 2019-04-14 19:51:14
Программа кодирования : mkvmerge v8.3.0 ('Over the Horizon') 64bit
Библиотека кодирования : libebml v1.3.1 + libmatroska v1.4.2

Видео
Идентификатор : 1
Формат : AVC
Формат/Информация : Advanced Video Codec
Профиль формата : High@L4.1
Параметр CABAC формата : Да
Параметр RefFrames формата : 4 кадра
Идентификатор кодека : V_MPEG4/ISO/AVC
Продолжительность : 56 м. 26 с.
Вид битрейта : Переменный
Битрейт : 5356 Кбит/сек
Максимальный битрейт : 6000 Кбит/сек
Ширина : 960 пикселей
Высота : 720 пикселей
Соотношение сторон : 4:3
Режим частоты кадров : Постоянный
Частота кадров : 23,976 (24000/1001) кадра/сек
Стандарт вещания : Component
Цветовое пространство : YUV
Субдискретизация насыщенности : 4:2:0
Битовая глубина : 8 бит
Тип развёртки : Прогрессивная
Бит/(Пиксели*Кадры) : 0.316
Размер потока : 2,07 Гбайт (91%)
Default : Да
Forced : Нет
Цветовой диапазон : Limited
Основные цвета : BT.709
Характеристики трансфера : BT.709
Коэффициенты матрицы : BT.709

Аудио
Идентификатор : 2
Формат : AC-3
Формат/Информация : Audio Coding 3
Расширение режима : CM (complete main)
Параметр Endianness формата : Big
Идентификатор кодека : A_AC3
Продолжительность : 56 м. 26 с.
Вид битрейта : Постоянный
Битрейт : 384 Кбит/сек
Каналы : 2 канала
Расположение каналов : Front: L R
Частота : 48,0 КГц
Частота кадров : 31,250 кадров/сек (1536 spf)
Метод сжатия : С потерями
Размер потока : 155 Мбайт (7%)
Default : Да
Forced : Нет

piratbit.org



Скачать Остров Гуава через торрент https://d.radikal.ru/d42/1904/58/c5594294abda.jpg Скачать фильм Остров Гуава через торрент бесплантно в хорошем качестве Описание: Музыкант задумывает о том, чтобы осуществить план, чтобы пробиться в хорошую жизнь, что быстро заставляет его ... 10 10 3
Торрент: Зарегистрирован [2019-04-15 08:48] · скачан: 44 раз
Статус: T временная
Размер: 2.26 GB
Как cкачать? Как скачать Остров Гуава через торрент | qTorrent

% Раздел Тема Автор DL S | L
T Фильмы (мультфильмы) cо спонсором показа (Новинки AVI/MKV) [ 745 MB ] Остров Гуава / Guava Island [2019 WEB-DLRip] MVO ["Синема УС"] bober100 Скачать
2 | 0


>> Регистрируемся здесь <<






Отзывы и комментарии о схеме читаем и пишем здесь: ---> Отзывы и комментарии о схеме

Новые благодарочки в телеграм довольных пользователей:
скриншот   скриншот   скриншот   скриншот   скриншот
    Дорогой пользователь! Огромная просьба, поблагодарите релизера, оцените раздачу и оставьте свои комментарий, если Вы скачали Остров Гуава через торрент бесплатно! Внесите свою лепту в развитие PiratBit!
    Комментировать посты могут только пользователи прошедшие не сложную регистрацию
    Показать сообщения:    

    Остров Гуава через торрент
    Скачать бесплатно Остров Гуава
    Остров Гуава скачать торрент
    Остров Гуава смотреть онлайн
    Cкачать фильм Остров Гуава бесплатно
    Остров Гуава скачать торрент в хорошем качестве
    Остров Гуава смотреть онлайн бесплатно в хорошем качестве


    Вы не можете начинать темы
    Вы не можете отвечать на сообщения
    Вы не можете редактировать свои сообщения
    Вы не можете удалять свои сообщения
    Вы не можете голосовать в опросах
    Вы не можете прикреплять файлы к сообщениям
    Вы можете скачивать файлы