Наша группа ВК в очередной раз забанена мы уходим в Телеграм, присоединяйтесь!!!

Лицензия

30

iTunes

Как приручить дракона 3

iTunes

1

1 сезон

Чернобыль

iTunes

Снегоуборщик

iTunes

Закатать в асфальт

8 сезон

Игра престолов

iTunes

Ральф против интернета Хит недели

ИГРА 18+

pack

ВАЖНО

!!Акция!!

Alien_RageХит недели

RePack

Resident Evil 21
pack

RePack

Metro:Exodus

!!Акция!!

Alien_Rage

RePack

fifa19

RePack

Assassins Creed: Odyssey

RePack

NEED FOR SPEED™ PAYBACK

3 сезон

9 сезон

Бесстыжие 9 сезон

Все сериалы

все сериалы на PB.wtf

RePack

FAR CRY 5
Ребята, катастрофически не хватает 2730р. для оплаты серверов за АПРЕЛЬ (всвязи с блокировками трафик упал в 3 раза), 1-2р., выручайте.
  

Миа и белый лев / Mia et le lion blanc (Жиль де Мэтр) [2018, драма, приключения, семейный, TS 720p] DUB piratbit.org

Миа и белый лев через торрент piratbit.org

Раздают: 1 [ 0 KB/s ]
Размер: 2.5 GB | Добавлен: 1 мес. 7 д. назад | Торрент скачан:51 раз
Скачать  

15-04-2019 09:14 Миа и белый лев Скачать торрент  

Миа и белый лев / Mia et le lion blanc Год выпуска: 2018
Страна: Франция, Германия, ЮАР
Жанр: драма, приключения, семейный
Продолжительность: 01:27:30
Перевод: Дублированный
Субтитры: отсутствуют

Режиссер: Жиль де Мэтр

rating

В ролях:

Даниа Де Вилье, Мелани Лоран, Лэнгли Кирквуд, Райан Мак Леннан, Лайонел Ньютон, Лиллиэн Дюбэ, Брэндон Оре, Пол Дэвис, Эшли Харви, Тесса Джуббер

Описание:

Миа вместе с семьей переезжает в Южную Африку из Лондона, где ее родители покупают ферму по разведению львов. Девочку ничего не радует на новом месте, ей хочется вернуться в Лондон, где остались ее друзья и беззаботная подростковая жизнь. Но внезапно на нее сваливается забота о маленьком белом львенке по имени Чарли, который остался без родителей. И вся ее жизнь круто меняется... Они становятся неразлучны, пока однажды Миа не узнает, что ее другу грозит серьезная опасность. Тогда она решает сбежать и найти для Чарли новый дом, где он будет счастлив и свободен.

Качество: TS 720p
Формат: MKV

Видео: 3697 Кбит/с, 1280x536
Аудио: Русский, (AC3, 2 ch, 384 Кбит/с)
скриншот  скриншот  скриншот  

Общее
Уникальный идентификатор : 205387327476824983333236563620137347435 (0x9A842911304D61B6A2895019DE85296B)
Полное имя : D:\Mia.i.BeLiY.LeVV.2O19.D.TS.72Op.mkv
Формат : Matroska
Версия формата : Version 2
Размер файла : 2,50 Гбайт
Продолжительность : 1 ч. 27 м.
Режим общего битрейта : Переменный
Общий поток : 4083 Кбит/сек
Дата кодирования : UTC 2019-04-13 15:06:15
Программа кодирования : mkvmerge v8.3.0 ('Over the Horizon') 64bit
Библиотека кодирования : libebml v1.3.1 + libmatroska v1.4.2

Видео
Идентификатор : 1
Формат : AVC
Формат/Информация : Advanced Video Codec
Профиль формата : High@L4.1
Параметр CABAC формата : Да
Параметр RefFrames формата : 4 кадра
Идентификатор кодека : V_MPEG4/ISO/AVC
Продолжительность : 1 ч. 27 м.
Вид битрейта : Переменный
Битрейт : 3697 Кбит/сек
Максимальный битрейт : 4000 Кбит/сек
Ширина : 1280 пикселей
Высота : 536 пикселей
Соотношение сторон : 2,40:1
Режим частоты кадров : Постоянный
Частота кадров : 23,976 (24000/1001) кадра/сек
Стандарт вещания : Component
Цветовое пространство : YUV
Субдискретизация насыщенности : 4:2:0
Битовая глубина : 8 бит
Тип развёртки : Прогрессивная
Бит/(Пиксели*Кадры) : 0.220
Размер потока : 2,21 Гбайт (89%)
Default : Да
Forced : Нет
Цветовой диапазон : Limited
Основные цвета : BT.709
Характеристики трансфера : BT.709
Коэффициенты матрицы : BT.709

Аудио
Идентификатор : 2
Формат : AC-3
Формат/Информация : Audio Coding 3
Расширение режима : CM (complete main)
Параметр Endianness формата : Big
Идентификатор кодека : A_AC3
Продолжительность : 1 ч. 27 м.
Вид битрейта : Постоянный
Битрейт : 384 Кбит/сек
Каналы : 2 канала
Расположение каналов : Front: L R
Частота : 48,0 КГц
Частота кадров : 31,250 кадров/сек (1536 spf)
Метод сжатия : С потерями
Размер потока : 240 Мбайт (9%)
Default : Да
Forced : Нет

piratbit.org



Скачать Миа и белый лев через торрент https://c.radikal.ru/c31/1904/4e/9bca834939e6.jpg Скачать фильм Миа и белый лев через торрент бесплантно в хорошем качестве Описание: Миа вместе с семьей переезжает в Южную Африку из Лондона, где ее родители покупают ферму по разведению львов. Девочку ничего не ... 10 10 4
Торрент: Зарегистрирован [2019-04-15 09:14] · скачан: 51 раз
Статус: T временная
Размер: 2.5 GB
Как cкачать? Как скачать Миа и белый лев через торрент | qTorrent

% Раздел Тема Автор DL S | L
T Фильмы (мультфильмы) cо спонсором показа (Новинки AVI/MKV) [ 1.37 GB ] Миа и белый лев / Mia and the White Lion / Mia et le lion blanc [2018 HDRip] [Line] bober100 Скачать
18 | 0


>> Регистрируемся здесь <<






Отзывы и комментарии о схеме читаем и пишем здесь: ---> Отзывы и комментарии о схеме

Новые благодарочки в телеграм довольных пользователей:
скриншот   скриншот   скриншот   скриншот   скриншот
    Дорогой пользователь! Огромная просьба, поблагодарите релизера, оцените раздачу и оставьте свои комментарий, если Вы скачали Миа и белый лев через торрент бесплатно! Внесите свою лепту в развитие PiratBit!
    Комментировать посты могут только пользователи прошедшие не сложную регистрацию
    Показать сообщения:    

    Миа и белый лев через торрент
    Скачать бесплатно Миа и белый лев
    Миа и белый лев скачать торрент
    Миа и белый лев смотреть онлайн
    Cкачать фильм Миа и белый лев бесплатно
    Миа и белый лев скачать торрент в хорошем качестве
    Миа и белый лев смотреть онлайн бесплатно в хорошем качестве


    Вы не можете начинать темы
    Вы не можете отвечать на сообщения
    Вы не можете редактировать свои сообщения
    Вы не можете удалять свои сообщения
    Вы не можете голосовать в опросах
    Вы не можете прикреплять файлы к сообщениям
    Вы можете скачивать файлы